&title=Lost Civilization
&artist=Laur
&first=0
&des=凉梦
&lv_5=14
&inote_1=(210.00)
{4},,,,,,
{16}4,5,4,5,4,5,4,5,
{4}6h[1:1]/3h[4:1],,,{8}2,2,1,,,,81,2,35,4,
{4}6h[1:1]/5,,,{8}8,8,{4}1,,6h[4:1]/2,3,4h[1:1]/6,
&inote_5=(210.00)
{4},,,,,,
{4},,
{4}6h[1:1]/3h[4:1],,,{8}2,2,1,,,,81,2,35,4,
{4}6h[1:1]/5,,,{8}8,8,{4}1,,6h[4:1]/2,3,
{4}4h[1:1]/6,,,{8}7,7,6,,
{4},{8}17,2,46,7,18,,,,
{12}7,4,6,2,5,3,8,,,
{12}7,6,5,14,2,3,{4}4/8-4[8:1],
{8}18,2,6,2,37,6,2,6,48,2,7,2,17,2,35,4,58,7,4,7,62,3,7,3,48,7,2,7,15,6,2,7,
{8}48,48,37,37,26,26,15,15,48,48,15,15,26,26,37,37,
{16}48,3,2,1,5,4,3,2,6,5,4,3,7,6,5,4,
{32}8,7,6,5,4,3,2,1,8,7,6,5,4,3,2,1,{4}8-4[8:1]/4,,
{4}7-4[8:1]/2,72,{8}52,1-5[8:1],,18,
{4},7,2h[4:1]/7,8,
{4}2-5[8:1]/7,72,{8}47,8-4[8:1],,18,{4},2,3h[4:1]/5,6,
{4}7p4[4:3]/2,1,{8}2,2,,3,{4},3,6h[4:1]/4,3,
{4}2q5[4:3]/7,8,{8}7,7,,6,{4},6,{16}7,8,7,8,7,8,7,8,
{4}6/1>6[4:3],7,{8}8,8,,1,{4},48,7h[4:1]/3,2,
{4}8<3[4:3]/3,2,{8}1,1,,8,{4},15,2h[4:1]/6,7,
{8}8-5[8:1],3,8,3,4-7[8:1],3,4,2,2-5[8:1],7,2,7,4-1[8:1],7,4,7,
{8}2/7-4[8:1],7,7/2-5[8:1],2,2/6-1[8:1],6,6/3-8[8:1],3,
{32}37,6,5,4,,,,,1h[8:1]/2,3,4,5,,,,,{6}48,15,46,
{4}2qq5[4:6]/7,6,5,4,3,2,1,8,
{4}6h[2:1]/4,3,2,3h[2:1]/7,6,5,7h[4:1]/4,3,{8}26,3,45,,{4}6,7,
{4}7<4[8:5]/3,2,{8}3,2,1,,
{4}2>5[2:1],6,7,7<4[4:1],{8}1,2,3,,{4}2,1,
{4}3h[2:1]/5,6,7<4[2:1],3,2,1,1,2>4[4:1],{8}5,6,7,,{4}5,6,
{4}6/7h[2:1],5,4,3h[2:1]/4,5,6,
{16}47,,6,5,{8}6,4,3,2,{8}18,7,6,5,4,3,
{4}2h[4:1]/5,6,7,8h[4:1]/2,3,4,
{4}2,3<5[4:1],{8}6,6,7,,{4}6,5,
{4}63,7<4[4:1],{8}1,2,3,,{4}2,1,8>5[2:1]/5,6,{8}7,7,6,,{4}4,3,
{4}5/2h[4:1],6,7,8h[4:1]/2,3,4,7<4[2:1]/3,2,{8}1,2,3,,{4}2,1>6[4:5],
{4}6,7,8,1,2,3,{16}25,,3,4,{8}3,2,1,8,{8}71,2,34,5,68,12,
{4}3/4h[2:1],2,1,8/7h[2:1],1,2,
{8}1>5[2:1],,6,6,7,8,{4}8,7,6,
{4}5>8[2:1],{8}7,7,6,5,{4}5,6,7,
{4}8<4[2:1],{8}1,1,2,3,{4}3,2,1,
{4}2/7h[2:1],3,4,7/3h[2:1],6,5,2>5[2:1],{8}6,6,7,8,{4}8,
{16}8,4,8,4,8,4,8,4,{8}73,73,62,62,51,51,48,48,51,51,62,62,
{8}7-4[8:1]/3,7,7/3-8[8:1],3,3/6-1[8:1],6,6/2-5[8:1],2,2/7-4[8:1],7,7/1-5[8:1],1,17,,
{12}8,6,7,1,3,2,7,5,6,2,5,3,7,4,6,
{4}5b-1[4:1],,,4w8[8:1],,
{8}2/5<7[8:1],3,
{4}5-8[8:1]/4h[2:1],5-1[8:1],5>3[8:1],5-2[8:1]/6,5-1[8:1]/7,5/8<6[8:1],
{4}8-5[8:1]/2h[4:1],8-4[8:1],{8}8/1>3[8:1],1,{4}1-4[8:1]/7,1-6[8:1]/7,1/5>3[8:1],
{4}5-2[8:1]/7h[4:1],5-1[8:1],{8}5/8>2[8:1],8,{4}8-3[8:1]/7,8-4[8:1]/6,8/5>3[8:1],
{4}5-2[8:1]/6,5-1[8:1]/7,5<7[8:1],5-8[8:1]/3,5-1[8:1]/4,54,
{4}8h[4:1]/2>4[8:1],2-5[8:1],2/7-3[8:1],7-4[8:1],7<5[8:1],7/2<8[8:1],
{4}6/2-7[8:1],5/2-6[8:1],2/5>3[8:1],5-2[8:1]/8,5-1[8:1]/7,5/8<6[8:1],
{4}8-5[8:1]/2,8-4[8:1]/3,83,{16}7,8,7,8,7,8,7,8,{4}1>3[8:1]/6,
{4}1-4[8:1]/7h[4:1],1-5[8:1],1/8<6[8:1],8-5[8:1]/4,8-4[8:1]/3,8/2-6[8:1],
{4}2-5[8:1]/7,2>4[8:1]/8,{8}2/1<7[8:1],1,{4}1-6[8:1]/2,1-5[8:1]/3,1/4>2[8:1],
{4}4-1[8:1]/6,4-8[8:1]/5,{8}4>2[8:1]/7,6,{4}5/4-1[8:1],6/4-8[8:1],4/7<5[8:1],
{4}7-4[8:1]/3,7-3[8:1]/2,7<5[8:1]/1,7-4[8:1]/8,7-3[8:1]/1,7/2<8[8:1],
{4}2-7[8:1]/6,2-6[8:1]/5,2/4,1-7[8:1]/5-3[8:1],1-3[8:1]/5-7[8:1],15,
{16}4,8,3,7,2,6,1,5,{32}2-5[8:1]/6-1[8:1],3,4,5,6,7,8,1,
{4}2b-7[8:1]/6-3[8:1],2>5[8:1]/6<1[8:1],26,
{8}26,26,47,47,36,36,15,15,27,27,48,48,
{16}3,7,3,7,3,7,3,7,2,6,1,5,
{16}8,4,8,4,8,4,8,4,
{32}51,62,37,48,5,6,7,8,
{1}5b/1bw5[2:5],,,
{4},8w4[2:5],{1},,,
{4},,,
{4}8-4[4:7]/C,,,,,,,,,{8},,,,{16},,,,{24},,,,,,,,,,,,1-5[16:1],
