&title=MUSIC PЯAYER
&artist=A-One
&first=-1.1
&des=全可观测宇宙最尊重企鹅的玩家
&des_5=
&des_6=全可观测宇宙最尊重企鹅的玩家
&lv_6=14
&inote_5=(84)
E
&inote_6=(84){4},{8},,,,,,8/7-4[16:1],
1/2-5[16:1],7,2>7[8:9],{16}8,8h[8:1],,,{8}1,{16}8,8,
8,8h[8:1],,,{8}1,{16}8,8,8,8h[8:1],,,{8}1,{32}1,8,{16}1,
{8}4/3-8[16:1],5/6-1[16:1],3,6<3[8:9],{16}4,4h[8:1],,,{8}5,{16}4,4,
4,4h[8:1],,,{8}5,{16}4,4,4,4h[8:1],,,{8}5,{32}5,4,{16}5,
6-1[16:1],7/5,3-8[16:1],4/2,{8}6,3,{16}1/8,{32}2,1,{16}4,{32}7,8,{16}5,{32}2,1,{16}4,{32}7,8,
{16}5h[16:1],{32}1,1,{16}6h[16:1],{32}2,2,{16}7h[16:1],{32}3,3,{16}8h[16:1],{32}4,4,1<5[8:1],1,3,3,7,7,{16}4,{32}4/1,3,2,1,{8}8,
{16}7-4[16:1],8/1,2-5[16:1],1/8,{8}7,2,{16}8h[16:1],{32}4,4,{16}7h[16:1],{32}3,3,{16}6h[16:1],{32}2,2,{16}5h[16:1],{32}1,1,
5,5,3,3,7,7,1,1,6,6,2,2,8,8,{16}4,{64}5/8b-5[16:1],7,{32}6,{64},,,,4/1b,2,{32}3,,,{16}8b,{64}4b,3,2,1,,,,,,,,,{32}2-5[16:1],
1,3,8,{16}2-7[16:1],6,2b,6,2b,6,{32}7-4[16:1],8,6,1,{16}7-2[16:1],3,7b,3,7b,3,
{32}2-5[16:1],1,3,8,{16}2-8[16:1],6,2b,7,2b,5,{32}6bx,8bx,5bx,5bx,,,3bx,1bx,4bx,4bx,,,,8,7,6,
4-8[16:1],5,3,5,{16}4-2[16:1],6,4b/5,6,4b/5,6,{32}8-4[16:1],1,7,1,{16}8-6[16:1],2,8b/1,2,8b/1,2,
{32}5-7[16:1],1,2,3,{16}4-2[16:1],6,5b/4,3,5/4b,6,{32}7-3[16:1],7,8-4[16:1],8,1-5[16:1],1,2-6[16:1],2,{16}7bx,8bx,1bx,2bx,
7-3[16:1],7,6,5,7/8-4[16:1],8,7,6,8/1-5[16:1],1,8,7,1/2-6[16:1],2,1,8,
{8}2/1h[4:1],{16}7,5,8-6-1-5-2-4-8[16:7],4h[16:7],,,A8f,A6f,A1f,A5f,{4}A2f,
{16}2bx-6[16:1],2,3,4,2/1-5[16:1],1,2,3,1/8-4[16:1],8,1,2,8/7-3[16:1],7,8,1,
{8}7/8h[4:1],{16}2,4,1-3-8-4-7-5-1[16:7],5h[16:7],,,A1f,A3f,A8f,A4f,{4}A7f,
{16}5,6,8/7-4[16:1],1-4[16:1],2,3/6,7,1,6,7,1/8-4[16:1],2-7[16:1],3,4/7,8,2,
{32}5,6,7,8,5,4,3,2,4,5,6,7,4,3,2,1,{64}7x/8bx-3[16:1],6,{32}5,{64},,,,8bx/7bx-4[16:1],1,{32}2,{64},,,,7bx/8bx,6,{32}5,{64},,,,8x/7bx,1,{32}2,,,{16}4,
3,1/2-5[16:1],8-5[16:1],7,6/3,2,8,3,2,8/1-5[16:1],7-2[16:1],6,5/2,1,7,
{32}5,4,3,2,5,6,7,8,2,1,3,8,4,7,5,6,{16}5w1[8:1],{32}4,6,3,7,2,8,,,,,,,,,{16}7-4[16:1],
6x/5x,7-2[16:1],8x/1x,7b,2,7b,4,7-4[16:1],1,7-2[16:1],5,{64}7b/4,3,{32}2,{64},,,,7b/2,3,{32}4,{64},,,,4/7,
3/6,{32}2/5,{64},,,,5/2,6/3,{32}7/4,{64},,,,7bx/4bx,3/6,{32}2/5,{64},,,,7bx/3bx,6/2,{32}1/5h[16:7],{64},,,,7b,6,4,3,{16}2,{64}7b,6,4,3,{16}2,{64}7b,6,4,3,{16}2,{64}7b,6,4,3,{16}2,
5-8[16:1],6h[16:1],4-1[16:1],3h[16:1],{8}5b,4b,{16}7/2-6[16:1],6,1/8-4[16:1],3,8/2b,7,8b/2,3,
{32}6x,5x,{16}7h[32:1],{32}3x,4x,{16}2h[32:1],{32}7,6,{16}5h[32:1],{32}1,2,{16}3h[32:1],{32}5,4,6,3,7,2,8,1,{16}7h[16:1],2h[16:1],{64}8bxh,7xh,6xh,5xh,,,,,{16}2-5[16:1],
3x/4x,2-7[16:1],1x/8x,2b,7,2b,5,2-5[16:1],8,2-7[16:1],4,{64}2b/5,6,{32}7,{64},,,,2b/7,6,{32}5,{64},,,,5/2,
6/3,{32}7/4,{64},,,,4/7,3/6,{32}2/5,{64},,,,2bx/5bx,6/3,{32}7/4,{64},,,,2bx/6bx,3/7,{32}8/4h[16:7],{64},,,,2b,3,5,6,{16}7,{64}2b,3,5,6,{16}7,{64}2b,3,5,6,{16}7,{64}2b,3,5,6,{16}7,
4-1[16:1],3h[16:1],5-8[16:1],6h[16:1],{8}4b,5b,{16}1-7[16:1],2-4[16:1],7/3,2,1b,2b,7x,8x,
6/8xh[16:11],B5,2,B3,5,B5,3,B3,{32}E5,E6,E7,E8,E1,E2,E3,E4,{64}8,7,6,5,4,3,2,1,{8}8b/Cf,
{32}3,5,4,6,3-8[16:1],5,4-7[16:1],6,{16}2,5,3b,4b,1,{32}6,5,{16}7-2[16:1],{32}3-5[16:1],4,{16}2,6/1,7b,3b,
8,{32}3,4,{16}2-5[16:1],{32}6-8[16:1],5,{16}7,3/1,2b,6b,{32}5bx,6bx,7bx,8bx,,,4bx,3bx,2bx,1bx,,,,1x,8x,7x,
6x,4,5,3,6-8[16:1],4,5-3[16:1],3,{16}7,4,6b,5b,8,{32}3,4,{16}2-4[16:1],{32}5-1[16:1],4,{16}6,3/7,2b,5b,
3x,{32}7,8,{16}6-4[16:1],{32}3-7[16:1],4,{16}2,7/1,6b,3b,{32}4<7[16:1],4,8>3[16:1],8,6-1[16:1],6,2-5[16:1],2,{16}4bx,8bx,6bx,2bx,
{4}7bx<2[8:3],{8}1,8,{4}7<2[8:3],{8}1,8,
{4}7<2[8:3],{8}1,8,{4}7h[4:1],{8}1,{16}8,{32}1,1,
{4}2b>7[8:3],{8}8,1,{4}2>7[8:3],{8}8,1,
{4}2>7[8:3],{8}8,1,2-7-4-1[16:3],{16}1,8,{8}1,Cf,
{16}5,6,1/7-3[16:1],2-8[16:1],3,4/6,7,2,6,7,2/8-4[16:1],3-6[16:1],4,5/7,8,3,
{32}8,7,6,5,8,1,2,3,1,8,7,6,1,2,3,4,{64}5x/6bx-1[16:1],7,{32}8,{64},,,,1/2bx-5[16:1],3,{32}4,{64},,,,6bx,5x,{32}4x,{64},,,,2bx,1x,{32}8x,,,{16}4x,
3x,8/2x-6[16:1],7-1[16:1],6,5/3,2,7,3,2,7/1-5[16:1],6-3[16:1],5,4/2,1,6,
{32}1,2,3,4,1,8,7,6,4,5,3,6,2,7,1,8,1w5[8:1],1,1,1,1,1,1,1,{4}1bx,
{16}7-4[16:1],5x/4x,6-1[16:1],8x/1x,7b,2,6b,4,7-4[16:1],1,7-2[16:1],5,{64}7b/4,3,{32}2,{64},,,,7b/2,3,{32}4,{64},,,,4/7,
3/6,{32}2/5,{64},,,,5/2,6/3,{32}7/4,{64},,,,7bx/4bx,3/6,{32}2/5,{64},,,,7bx/3bx,6/2,{32}1/5h[32:17],{64},,,,2b,3,4,6,7,8,,,2b,3,4,6,7,8,,,2b,3,4,6,7,8,,,2b,3,{32}4,,,{16}5-2[16:1],
4x/3x,4-7[16:1],5x/6x,{8}5b,4b,{16}3V17[8:1],4,5-1[16:1],7,{8}3/6,5,
{32}8,1,{16}2h[32:1],{32}8,7,{16}6h[32:1],{32}1,2,{16}3h[32:1],{32}8/1,7/2,{16}6/3,4/5pp8[16:3],4,4,4,{64}5/D4,A3,D3,A2,{16}D2,{64}1bxh,2bxh,3bxh,4bxh,,,,,{16}3-8[16:1],
1x/8x,2-5[16:1],4x/5x,3b,6,2b,7,2-5[16:1],8,2-7[16:1],4,{64}2b/5,6,{32}7,{64},,,,2b/7,6,{32}5,{64},,,,5/2,
6/3,{32}7/4,{64},,,,4/7,3/6,{32}2/5,{64},,,,2bx/5bx,6/3,{32}7/4,{64},,,,2bx/6bx,3/7,{32}8/4h[32:17],{64},,,,7b,6,5,3,2,1,,,7b,6,5,3,2,1,,,7b,6,5,3,2,1,,,7b,6,{32}5,,,{16}4q8[16:1],
5x/6x,5p1[16:1],4x/3x,{8}4b,5b,{16}6V82[8:1],5,4-8[16:1],2,{8}6/3,4,
{16}2/6,B5/B1,7/3,B3/B7,4/8,B5/B1,6/2,B3/B7,{32}E5,E6,E7,E8,E1,E2,E3,E4,{64}8,7,6,5,4,3,2,1,{8}8b/Cf,
{32}3-1[16:1],6,3,6,4-8[16:1],7,4,7,{16}3b,5,4b,6,{32}7-5[16:1],1,7,1,8-4[16:1],2,8,2,{16}7b,1,8b,2,
{32}6-8[16:1],3,6,3,5-1[16:1],2,5,2,{16}6b,4,5b,3,{32}8bx/4bx,7bx/3bx,6bx/2bx,5bx/1bx,,,1bx/5bx,2bx/6bx,3bx/7bx,4bx/8bx,,,4,5,4,5,
3>8[16:1],6,3,6,4p7[16:1],7,4,7,{16}3b,5,4b,6,{32}7<5[16:1],1,7,1,8p4[16:1],2,8,2,{16}7b,1,8b,2,
{32}6x<8[16:1],3x,6x,3x,5q1[16:1],2,5,2,{16}6b,4,5b,3,{32}4>1[16:1],4,8<5[16:1],8,2v7[16:1],2,6v3[16:1],6,{16}4bx,8bx,2bx,6bx,
{1}7bx-1-4v7-1q5[4:7],
E
