&title=Diomedes
&artist=XeoN
&first=0
&des=Mao_Yu
&lv_5=14
&des_5=Mao_Yu
&inote_5=
(190){4},{8},,,,,,,,,,6,
5,4,3h[2:1],
,B8/B7,,,3,4,5,6h[4:1],
,2b>5[4:1],{16},,5qq1[2:1],6,{8}7,,,8,
,7,,6pp1b[2:1],,,{4}2,
3,4qq5[2:1],{8}5,,,8,
,6pp1[2:1],,,2,,,4h[2:1],
{16}8,,,7,,,{8}6,5/3bh[8:5],,,4h[8:3],
,,{4}1pp2<8[8:3],{8}7,6,5,4-7[8:1],
,4,{4}2-5b[8:1],{8}2/8h[#0.7894735],,,7,
,1-4[8:1],,1/3h[8:3],,,5,4/6h[4:1],
{16},,3,2,{8}1,7,{4}4/6h[4:1],{8}4,3/5pp8[8:3],
,2>4b[8:1],,2<6[8:3],,,6>3b[4:1],6,
{12}D6,D5,D4,7,6,5,{4}8bh[4:1],{8}7,5h[8:3],
,4h[4:1],,3,5/2bh[4:1],,,1/7h[2:1],
,6,5,4,{2}3bh[8:3]/6v4-7-1[2:1],
{8}3,4,5,6bh[4:1],,7,{4}5h[8:3],
{16},,,,8x,8x,8x,8x,7bx,6,5,4,1,2,3,4,
8,7,6,5,2,3,4,5,1,8,7,6,2,3,4,5,
1,2,3,4,2,3,4,5,8,7,6,5,1,2,3,4,
7,6,5,4,8,1,2,3,7,6,5,4,8,7,6,5,
7,2,7,2,6,3,5,4,5bx,6,7,8,3,2,1,8,
6,7,8,1,4,3,2,1,7,8,1,2,3,4,5,6,
4,3,2,1,6,7,8,1,3,2,1,8,5,6,7,8,
2,1,8,7,6,5,4,3,5,4,6,3,7,2,8,1,
7,2,6,3,{32}5x-1[8:1],4,3,2,1,8,7,6,{16}5b,Cf,,,,,{8}4x/7x-2[8:1],
,7,{4}1-5b[8:1],1/6-8[8:1],6-3b[8:1],
6v1[8:1],6v3[8:1]*-4[8:1],{8}6/Cf,,,5x/2x-7[8:1],
,2,{4}8-4b[8:1],8-2>3[8:1]*-3[8:1],8-6>5b[8:1]*-5b[8:1],
8w4[8:1],Cf,{8}4x/3x,5,6bx-3[8:1],7,
8x-5[8:1],1,2bx-7[8:1],3,4x-1[8:1],5,6b,7,
8x,3,4/6b,7,8/2-5[8:1],3,8,7p3b[8:1],
1-5[8:1],7,{4}1,{16}7,4,7,4,6,3,6,3,
5,2,4,3,{32}5,6,7,8,1,2,3,4,{8}Cf,,,7xh[8:3],
,5-3[8:1],,5,{4}6<1[4:1],{8}4,2h[4:1],
,4,2,5h[4:1],{4}3-1[8:1],{8}3,7x<4[4:1],
,B8/B7,,1,2,6,{4}7v4[8:1],
8-5[8:1],1<6b[8:1],{8}2h[8:3],,,4x-6[8:1],
3,4,,3>8[8:1],{2}8<5[8:1]*v3b[8:1],
{6}2x/4x,{12}5x,3x,{6}4xpp6[6:1]/6xqq4[6:1],B6f/B4f,{24},,,,,{8}7h[2:1],
,5,6,8,{16}1,2,3,4,2,3,4,5,
3,4,5,6,4,5,6,7,{8}8/4,3-5[8:1],2h[8:3],3,
,1-5[8:1],8-6[8:1],1,{4}8,{8}3,5h[8:3],
{16},,2,3,{8}4,7,{4}1/8h[4:1],{8}3,4/2-7[8:1],
,4q8b[8:1],,4,3-7[8:1],2,6<1[8:1],5,
4-8b[8:1],3,,,5xpp4[8:3],,,1,
,2-5[8:1],,2,8qq5[2:1],,,B1/B2/E2,
,3,2,1,{4}8h[4:1]/6-3[8:1],6b,
{8}1/4,5-3[8:1]/2-8[8:1],6/3,5/2,,B5/E5/B4/B8/E1/B1,{4}Cfh[4:3]/3x-8-2-5b[2:1],
,,B4/B3/B6/B5,{16}2x,5,2,5,
3,6,3,6,4,7,4,7,5,8,5,8,4,3,2,5,
6,7,3,2,1/8,7,6,5,{32}3bx,2,1,8,7,6,{16}5,7x,4,7,4,
6,3,6,3,5,2,5,2,4,1,4,1,5,6,7,3,
2,1,6,7,1/8,2,3,4,{32}6bx,7,8,1,2,3,{16}4,2x,5,2,5,
3,7,3,7,5,8,5,8,4,7,3,6,2,5,1,4,
1,2,3,4,7v2[8:1],6,5,4,{4}7bx,{16}7x,4,7,4,
6,2,6,2,4,1,4,1,5,2,6,3,7,4,8,5,
8,7,6,5,2-7[8:1],3,4,5,{6}2b,{12}1xv4[12:1],1x,,5x-8[12:1],
{6}5x,{12}6xv3[12:1],6x,,7x-2[12:1],{6}7x,{12}8xv5[12:1],8x,,,1,
1,1,4v7b[8:1],4,4,{6}Cf,{12}5x-2[12:1],5x,,3x-8[12:1],
{6}3x,{12}1x-6[12:1],1x,,,2,3,4,5/3,4,5,
{6}6/4/B1/B2,{12}B7,B6/B5,,Cf/B8/B1/B2,6x,5x,4x,6xh,5xh,4xh,
{6}3x-7[6:1],{12}4x,3x,,5,{6}4x-1[6:1],{12}5,4x,,7bxh[#0.7368393],
B1,B3,E5,E8,E7,E6,{2}1w5b[12:1],
{12}7-4[12:1],8,1q5[12:1],7,8,1,8x-5b[12:1],8x,8xv3[12:1],8x,,,1x-6b[12:1],
1x,1xw5[12:1],1x,,Cf,{1},,{16},,{8}B8,
B6,B2,
,B6/B5,,B3,,B8/B1,,B6,
{32}B1,B2,,,B7,B6,,,B3,B4,,,B8,B7,,,{4}Ch[1:2],B8,
{8}B7,,,B5/B6,,B7,,B8,
{4}B7/B6,B1,{8},7,1,6h[2:1],
,4-7[8:1],,4,,5<2b[2:1],,3,
2,3,4,5,{6}8bx-5[0.2105##0.1053],2bx-6[0.2105##0.1053],4bx,
{4}4bxw8[12:1],A4f,{8}6xh[4:1]/2bxh[4:1],,,3,
{4}5h[8:1]/3h[8:3],5-7[8:1],5/1>3[8:1],{8}8,8-4[8:1],
,2>7b[8:3],,,,,{4}1q5[8:1],
1-6b[8:1],1/8-3[8:1]*-5[8:1],{6}8x,2x/6x,{24},{8}1x/7x,
{4}8-4[8:1],{8}A8f,3<5[8:1],5x<7[8:1],7x>1[8:1],{4}1x>4[4:1],
4<7[4:1],7>2[4:1],5x-1[8:1],{8}5,3x-8[8:1],
,6>8[2:1],,6b,,,E2,E3,
E4,E5,E6,E7,8bx<4b[8:3],,,4>1[4:1],
,1<5b[8:3],,,5q1>3[8:3],,,3<6[4:1],
,1,2,3,{4}8/4-8[8:1],{8}4,7b-4[8:1],
,2b<7[8:1],,5b>3-1[8:3],,,{4}1-5[4:1],
5<8[4:1],8-4>3[4:1],{8}3-1-7[8:3],,,7-5q1[8:3],
,,{4}1q5>4b[4:1],{8}4>6[2:1],,,1,
3,4,5x-1[8:1],4,{4}2bh[4:7],{8}8,7<7-5-3-1-7[4:5],
,,,,,,,,,,,,1-5[8:1],
5-3[8:1],6,7,
8v5b[8:1],7,3,2,4v6[8:1],6-3[8:1],7,8,
7-4b[8:1],6,1,3,2-5[8:1],5v3[8:1],8,7,
6v1b[8:1],5,2,2v5[8:1],,2b/8-4b[8:1],,8b,
{16}1,2,{8}3,{16}5,6,{8}7,1/8-4[8:1],4-6[8:1],3,1,
2v5b[8:1],3,8,7,6-4[8:1],4v5[8:1],3,2,
1-4b[8:1],2,6,8,{16}7,1,6,2,5,3,5,3,
6,4,6,4,5,3,4,2,8,1,7,2,6,3,5,4,
{12}5x-1[12:1],4x,3x-8[12:1],5xh,4xh,3xh,{8}7bxh[4:1],2x,3,6h[4:1],
3,4,{16}5,4,5,4,{8}6b,7,4h[4:1],6,
7,5,7p4[8:3]*q2[8:3],8,{2}A7f,
{6}1x/8b-4[0.2105##0.1053],2b-5b[0.2105##0.1053],6b-1[0.2105##0.1053],3b-8b[0.2105##0.1053],7b-4[0.2105##0.1053],1x,
3xh[12:1]/2xh[12:1],4xh[12:1]/5xh[12:1],6xh[12:1]/7xh[12:1],8h[4:1]/1<3[8:3],{48},,,,,,,,,,,,,,,,{16}8,
7,6,5,2,1,8,7,{6}6xh[12:1]/5xh[12:1],4xh[12:1]/3xh[12:1],2xh[12:1]/1xh[12:1],
{4}7/8h[6:1],{16}6,5,6,5,7,6,5,4,8,1,2,3,
5,4,6,5,7,4,6,3,5,4,3,2,1,8,7,6,
{12}5/3,3,3,{96}4,,,5,,,{32}6,7,8,1,2,3,{6}Cf,B6h[12:7],B2h[12:5],
{4},,{16}E1,,,B7,,,{8}B6h[4:1]/B5h[16:5]/B1h[8:3]/B2h[2:1],
,,,,8,1-5[8:1],,1<5[4:1],
{2}7h[4:1],{16}8,7,6,5,7,6,5,4,
6,5,4,3,5,4,3,2,1/5,,,5/1<2[3:1]*>8[3:1],,,{8}1b,
,,{4}E1/E2/D2/D1/A1f,{16}8,,,8-6>5-2[16:5]/7-5-1[16:5],,,{8}8b/7b,
,,{4}E2f/A1/A2,{16}8-4[8:1],7,6,5,{8}8,{16}7>2[8:1],6,
5,4,{8}7,{16}5,6,7,8,2/1<6[8:1],3,4,5,{8}1,{16}4,3,
2,1,{8}8/4,{16}6/2,3/7,4/8,5/1,{4}2h[8:1]/6h[8:1],{8}8/4,{16}6,5,
{8}7,4/6,3/5,2,1/8,{16}7,5,{8}6,4/5,
{16}3,4,3,4,{8}2,1/8,6/5,5/6,4,2/1,
2/1,3,{16}8,7,6,5,2,4,3,5,4,6,5,7,
8,7,8,1,6,2,5,3,{4}4h[8:1],{8}4,{16}3,4,
{8}2,5/3,6/4,7,8/1,{16}2,4,{8}3,5/4,
{16}6,5,6,5,{8}7,8/1,{16}2,6,2,6,3,5,3,5,
4b,3,2,1,8/7b,6,5,4,7/3b,2,1,8,7/5b,4,3,2,
1/5b,4,3,2,4b/1b,3/8,2/7,1/6,{4}5/8/Cf,{16}4x,6,4,6,
3x,7,3,7,2x,8,2,8,1x,1,1,1,1x,1,1,1,
1x,1,1,1,1x,1,1,1,{32}B8,B7,{16}B6,,,5x,3,5,3,
6x,2,6,2,7x,1,7,1,8x,8,8,8,8x,8,8,8,
8x,8,8,8,8x,8,8,8,{32}B8,C,{16}B4,,,1bx,1,1,1,
1bx,1,1,1,1bx,1,1,1,1bx,1,1,1,1bx,1,1,1,
1bx,1,1,1,1bxq5[8:1]*p5[8:1],1,1,1,,,,,1b,1,1,1,
1b,1,1,1,1b,1,1,1,1b,1,1,1,1b,1,1,1,
1b,1,1,1,1b,1,1,1,{4}1bxh[8:17],B6,
{8}C,B8,B6,E5,,B3,,B2,
B1,B8,B7,B6,,B8,C,B4/B3,
,B7/B6,,B1/B2,,C,,B7,
{32}B1,B2,,,B6,B5,,,B3,B4,,,B8,B7,,,{4}Ch[8:7],6,
{8}7,6,5,6-8[8:1],,6,,2,
3/7,4,5/6,7h[2:1],,2,4,3-8b[8:1],
,3,,B6h[8:7],,B1h[16:11]/B2h[4:3],{4}B5h[16:11],
E
