&title=Mad (feat. WaMi)
&artist=ESAI
&first=0.51
&des=AOKR
&lv_5=14
&inote_5=(142){4}2h[8:5]/5<1qq4[2:3],{8},,,,,3h[8:7],
{1},{8}6h[8:5]/1>5qq8[2:3],
{4},,,{8}7h[8:7],
{1},{2}5/4-2<7-5[2:3],
B3,
E1,B6,
4/5-7>2-4b[4:5],B7/E8/B8,
E2/B1/B2,Cfh[4:1],
{8}6/5xh[8:3],7,8-4[8:1],1,{4}2/8,{8}3,2,
1qq3[2:1],8,{4}1,{8}E5,B6,{4}E8,
{8},{16}7-4[8:1],8,{8}6,7/8,3,2,1-5[8:1],8,
1/7-4[8:1],6,7/3,2h[8:3],B4/E4,B6/E7,{4}B8/E1,
{8},{16}3-8[8:1],4,{8}2,3/4,5,6,7-3[8:1],8,
7/1-5[8:1],2,1/3x-7[8:1],4,{4}3,B7/B6/B5/E5/B4/B3/B2/E7/E3/C,
{8},{16}2-5[8:1],1,{8}3,2/1,6,7,8qq5[2:1],1,
{4}2,{8}E4,E3,{2}E2,
{8}7,6,5,4<7[16:3],3,2,{4},{8}2,
3,4,5>2[16:3],6,7,{4},{8}8,
7,6,5<8[8:1],4,3,,1/2,
1/2q4pp4[8:5]*q4pp4[8:5],1/2h[4:3],{4},,,{8}6,
7,8,1qq5[8:3],2,3h[4:1],{4},{8}3,
2,1,8-4[8:1],7,6h[4:1],,3,
5,{16}3>1[8:1],4,{8},3/4,5,{16}8-4[8:1],7,{8},8/6,
,5pp1[16:7],5,4v2[16:3],{4}4,Cf,
{2}7xqq8[4:3],C,
3bxqq4b[4:3],C,
8x-6-1-5[2:1],B3,
3bx-5-2-8b[2:1],B7/E7,
{16}1,7,1,7,1,7,1,7,B2,7,1,7,1,7,1,7,
3,5,3,5,3,5,3,5,B2,5,3,5,3,5,3,5,
2,1,3,8,4,7,5,6,8,7,1,6,2,5,3,4,
{32}5x,6x,7x,8x,1x,2x,3x,4x,5x,6x,7x,8x,1x,2x,3x,4x,5x,6x,7x,8x,1x,2x,3x,4x,{4}5xh[4:1],
{48}1bx<6b[8:1],A2,D3,A3,D4,A4,{8},{4}1bx>4[8:1],{8}1/5<8[8:1],7,5/3,2,
3-7[8:1],7-3[8:1],1>7[16:5],8,{4}1b,Cf,
{8}8/1-5[8:1],2,1/7-4[8:1],8,7/3-7[8:1],2,3/5<8[8:1],6,
{4}5b>2[8:1],5b,{8}7,6/4,3,2/1,
{48}8bx>3b[8:1],A7,D7,A6,D6,A5,{8},{4}8bx,{8}6/4,7,8/2-6[8:1],1-7[8:1],
2b-4[8:1],1b-5[8:1],2b<3[16:5],1b,{4}2b,8xh[4:1],
{16}2,{8},{16}2,{8}4-8[8:1],5,4/6-1[8:1],5,6/4,5xh[8:7],
2bxh,7bxh,3bxh,6bxh,{4}4bxw8b[8:1],Cf,
{16}1b/7b,{8},{16}2,{8}2,8,2,{32}8,E8,B7,B6,{8}E6,C,
4bxh[8:1],{16}6,6,{8},4,6,{32}4,E4,B3,B2,{8}E2,C,
{4}5bxh[8:1]/6bxh[8:1],{16}4,7,5,6,4,7,5,6,4,7,5,6,
4,4,3,3,2,2,1,1,8,8,7,7,{4}Cf,
{16}8b/1b-4[8:1],{8},{16}7,{8}1-5[8:1],6,1-3[8:1],{16}7,7,{8}1-4[8:1],6,
8b/1b-5[8:1],{16}7,7,{8}1-4[8:1],6,1-3[8:1],{16}7,7,{8}1,6,
{4}5bxh[8:1]/4bxh[8:1],{16}B3,B5,B1,B7,B4,B6,B2,B8,E4/B3,E6/B5,E2/B1,E8/B7,
3,6,1,8,4b-2-6-8-4b[16:7],5b,2b,7b,{2}4b,
5x/4x>5[8:5],C,
6x/3x>6[2:1],C,
7x/2x<7[8:3],C,
1x/8xq1b[2:1],C,
{4}4>1[8:1],B2/B3,5<8[8:1],B6/B7,
1-4[8:1],E3/C/B2,8-5[8:1],{8}E7/C/B7,2,
4,{16}4-7[8:1],3,{8},4/2,1,{16}1-5b[8:1],8,{8},7b/1b,
,8xqq4[16:7],8bxqq4b[0.2113##0.7394],3xv1[16:3],{4}3bxv1b[0.2113##0.3169],Cf,
{2}6bx/2bx<1<8<7<6>5>4>3b[2:1],C,
2bx/8bxpp1-6b[2:1],B5/B4,
7bx/3bx<4<5<6<7>8>1>2b[2:1],C,
6bx/4bxpp2b[2:1],B1/B8,
{16}3,7,3,7,3,7,3,7,B2,7,3,7,3,7,3,7,
2,6,2,6,2,6,2,6,B3,6,2,6,2,6,2,6,
1,5,2,6,3,7,4,8,5xh,1h,4h,8h,3h,7h,2h,6h,
{32}1h,2h,3h,4h,5h,6h,7h,8h,1h,2h,3h,4h,5h,6h,7h,8h,1bx-5b[8:17],2bx,3bx,4bx,5bx,6bx,7bx,8bx,{4}1bxh[4:1],
8bxh,2bxh,{8}7bxh,3bxh,{4}6bxh,
4bxh,{16}6bxh,{8},{16}3bxh,{8}7bxh,2bxh,{4}1bx`Cf,
{8}1/8-4b[8:1],7,8/2-5b[8:1],1,2/7<4b[16:3],8,7/3>8b[8:1],2,
{4}3b<6b[8:1],3b,{8}1b,2/4,5b,8/6,
{64}1bx,D2,A2,D3,A3,D4,A4,D5,A5,D6,A6,D7,A7,D8,A8,D1,{4}1bx/Cf,{8}2/4,5,6/7-3b[8:1],8b-2b[8:1],
7b-5b[8:1],8b-4b[8:1],7b>5b[16:5],8b,{4}7b,1xh[4:1],
{16}7,{8},{16}7,{8}5-1b[8:1],4,5/3-8[8:1],4,3/5,4,
2x/6x,3x/7x,6b-1b[8:1]`2-5[8:1],7x/3x,{2}6b-4-1[8:1]`2-8-5b[8:1],
{64}1bx,D2,A2,D3,A3,D4,A4,D5,A5,D6,A6,D7,A7,D8,A8,D1,{4}Cf/1bx-5[8:1],{8}1/7<4b[8:1],8,7/3,2,
3-7[8:1],7-3b[8:1],1w5b[8:1],8,{4}1bx,C,
{16}2x/6x,3x/7x,4x/8x,5x/1x,{4}2bx-7b[8:1]`6x-3[8:1],2b<4b[4:1]`6,2b/6b,
{8}8>3[8:1],3<6[8:1],{4}8x,{8}8w4b[8:1],1/7,{4}8bx,
{64}1bx,D2,A2,D3,A3,D4,A4,D5,A5,D6,A6,D7,A7,D8,A8,D1,{4}1bx/Cf,{8}7/5,4,5-7[8:1],5-3b[8:1],
5b-8[8:1],5b-2b[8:1],5b-1[8:1]*-1[8:1],5b,{4}5b,3xh[4:1]/7xh[4:1],
{8},{16}2/6,3/7,{8}4/8,7/3,6b<1b[8:1]`2>5[8:1],1/5,{4}2bp6b[8:1]`6p2[8:1],
6b`2<4b[16:5],2b,{8}E1/B8/E8,B3/E4/A3,{4}Cf,
5b/1b-3b[8:1],5b/1b-7b[8:1],{16}5b/1b-3b[8:1],{8},{16}5b,{8}1b,5b,
{16}5b/4b,6,7,8,{8}1b/2b,3,7b/8b,{32}1x,2x,3x,4x,{8}5b/7b,8b/1b,
{4}Ch[8:1],{16}1,8,2,7,1,8,2,7,1,8,2,7,
1,8,8,8,2,8,8,8,3,8,8,8,{4}Cf,
4b/8b-6b[8:1],4b/8b-2b[8:1],{16}4b/8b-6b[8:1],{8},{16}4b,{8}8b,4b,
{16}4b/5b,3,2,1,{8}8b/7b,6,{32}1b,2x,3,4x,5bx/1b,2x,3x,4x,1b/5x<4[4:5],2x,3x,4x,{8}1b/5bx<4b[0.2113##2.1127],
{4}Cf/B5/B4/B2/B8/B1/B6/E6/E4/B3/B7/E7/E1/E3,{2},{4}B8`B1,
,E7`B6,{8}4x/5x,2x/7x,6bx/3bx<6b[16:3],B7/B2,
E
