&title=Sqlupp
&artist=owl*tree
&first=0.77999955
&des_1=每一个人的背后都有一个屁股
&des_2=每一个人的背后都有一个屁股
&des_3=每一个人的背后都有一个屁股
&des_4=每一个人的背后都有一个屁股
&des_5=每一个人的背后都有一个屁股
&lv_5=14+
&des_6=每一个人的背后都有一个屁股
&des_7=每一个人的背后都有一个屁股
&des=每一个人的背后都有一个屁股
&inote_5=(183)
{1},
{8},3,4,5,3,3,,6,5,4,6,6h[2:1],,B2,B3,B4,,3,4,5,3,3b,,6,5,4,6,6h[8:3],,2hx[16:1],2hx[16:1],2hx[16:1],
{8}3bV17[2:1]/5h[8:1],,5h[8:1],,5h[8:1],,5h[8:1],,8/5h[8:1],,1/5h[8:1],,
2/5h[8:1],,3/5h[8:1],,
{8}45,45,36,36,{16}2,7,2,7,1,8,1>8[8:3],8,{4}1h[2:1],,,
{4}8<5[8:1]/4q8[8:1],4b/8b>4[16:3],{24}E5,E6,E7,{8}E8,,7h[8:1],8-4[8:1],1,2>6[16:3],,8,8h[4:1],,6,5,3,
{8}2h[16:3],4,6,3h[16:3],5-1[8:1],7,8x,8,{16}2,,3,4,3h[8:1],,6,5,{8}6h[8:1],8,
{4}1>4[8:1]/5p1[8:1],5b/1b<5[16:3],{24}E5,E4,E3,{8}E2,,2h[8:1],1-5[8:1],8,7<3[16:3],,1,1h[4:1],,3,4,6,
{8}7h[16:3],5,3,6h[16:3],4-8[8:1],2,1x,1,{8}7h[16:1]/3,5,7/3h[16:1],5,7h[16:1]/3,5,3-7[8:1]/7-4[8:1],,
{4}7b>3[16:3]/3b,{24}E4,E5,E6,{8}E7,,7h[8:1],8-4[8:1],1,2>7[16:3],,8,8h[4:1],,6,4,2,{8}6h[8:1],8,5h[8:1],1,6h[8:1],2,5h[8:1],3,
{16}7,6,5,4,1,2,3,4,2,3,4,5,{8}6-2[8:1]/2-5[8:1],,
{4}2b<6[16:3]/6b,{24}E6,E5,E4,{8}E3,,2h[8:1],1-5[8:1],8,7<2[16:3],,1,1h[4:1],,3,5,7,
{48}1bx,2x,3x,{16}4xh[16:3],,,1,,{48}1bx,2x,3x,{16}4xh[4:1],,,1,,27,,,,
{48}8bx,7x,6x,{16}5xh[16:3],,,8,,{48}8bx,7x,6x,{16}5xh[4:1],,,8,,27,,,,
{48}1bx,2x,3x,{16}4xh[16:3],,,1,,{48}1bx,2x,3x,{16}4xh[4:1],,,1,,36,,,,
{48}8bx,7x,6x,{16}5xh[16:3],,,8,,{48}8bx,7x,6x,{16}5xh[4:1],,,8,,36,,,,
{1}4pp5[4:3]/5<4[4:5],{2},{8},B5,B6,B7,
{8}1b/8b,,34,,75,6,24,3,8,6,4,2h[8:3],,3,3x,,
{8}75,,35,,74,6,25,3,7,5,4,2h[8:3],,3,3x,,
{8}81,,65,,24,3,75,6,1,3,5,7h[8:3],,8,1,2,
{8},E4,E3,E2,E1,E8,E7,E6,2-6[8:1],4V68[16:3],2,4,,1,1-3[8:1],,
{4}1b-7[8:1]/5x,1-3[8:1]/4x,1-7[8:1]/6x,1-3[8:1]/4x,1-7[8:1]/6x,{8}1-3[8:1]/4x,4x,1-5[8:1],6x,1/8-6[8:1],,
{4}8-2[8:1]/4x,8-6[8:1]/5x,8-2[8:1]/3x,8-6[8:1]/5x,8-2[8:1]/3x,{8}8-6[8:1]/5x,5x,8-4[8:1],3x,8/1-3[8:1],,
{4}1-7[8:1]/5x,1-3[8:1]/4x,1-7[8:1]/6x,1-3[8:1]/4x,1-7[8:1]/6x,{8}1-3[8:1]/4x,4x,1-5[8:1],6x,1/8-6[8:1],,
{8},4,3,2,1,8,7,6,{8}2h[8:1]/5b,1,8,7bv6-4[16:3]b/4b,,1{8}1bx,1bx,,
{8}2b>5[8:1]/5x,1,25,,7<4[8:1]/4,8,74,3,2h[8:1],1,5h[8:1],7,3h[4:1],2,4,6,8<5[8:1]/4,5,84,,1>4[8:1]/5,4,15,6,75,1,23,3/4-8[8:1],4-1[16:1]/5,,,,
{8}7b<4[8:1]/4x,8,74,,2>5[8:1]/5,1,25,6,7h[8:1],8,4h[8:1],2,6h[4:1],7,5,3,
{16}E2/B2,,E8/B7,,E4,B4,B5,E6,C,,E8,E7,E6,,C,,A8,E1,E2,A2,A7,B7,B3,A3,A6,E6,E5,A4,C,,,,
{8}2b>5[8:1]/5x,8,25,,7<4[8:1]/4,1,74,2,1h[8:1],3,5h[8:1],7,1h[4:1],3,5,7,8<5[8:1]/4,6,84,,1>4[8:1]/5,3,15,6,75,1,34,4/5-1[8:1],5-2[16:1]b/6,,,,
{8}6h[4:1]/5b,3,1,6h[4:1]/5b,3,1,{16}7,8,1,2,{8}3h[4:1]/4b,6,8,3h[4:1]/4b,6,8,{16}2,1,8,7,
{16}2b/6b,,3,4,5,,7b/3b,,6,5,4,,2b/6b,,3,4,5,,7b/3b,,6,5,4,,2,1,2,1,4,5,4,,2b/6b,,26,,4b/8b,,48,,2b/6b,3,4,5,{32}8,1,2,3,4,5,6,7,{4}8hx[2:1]/1hx[2:1],,,1x>4[8:1]/8x<5[8:1],
{32}1bxqq5[8:5]/8bxpp4[8:5],E8/E2,E7f/E3f,E6/E4,{16},,{4},,,6h[2:1],{8}7,8,1-5[8:1],7,1,,74,1,25,8,74,1,2/5h[4:1],,{16}8,6,8,6,4,5,4,5,3,1,3,1,{8}27,
{16}6x,6xh[16:3],{32}1,2,3,4,,,,,{16}7x,7xh[16:3],{32}5,4,3,2,,,,,{16}5x,5xh[16:3],{32}8,1,2,3,,,,,{16}8x,8xh[16:3],{32}6,5,4,3,,,,,{16}7x,7xh[16:5],{8}1-6[8:1],2-5[8:1],1,2,7<4[8:1],8,2-6[8:1],1-4[8:1],2<7[8:1],,,,
{16}2bx,4,3,4,2bx,5,4,5,2bx,6,5,6,2bx,6,7,,
{4}8x-3[8:1]/5x-2[8:1],{32}8bxqq5[8:3]/5bxqq2[8:3],E1/E5,B4/B1,B3/B2,E3f,,,,
{4},,1xh[2:1],{8}3,4,8-4[8:1],2,8,,25,8,74,1,25,8,7/4h[4:1],,{16}1,2,4,3,2,1,5,4,8,1,5,4,7,8,6,5,
{8}7bx,{16}3x,3xh[16:3],{32}8,7,6,5,,,,,{16}2x,2xh[16:3],{32}4,5,6,7,,,,,{16}4x,4xh[16:3],{32}1,8,7,6,,,,,{16}1x,1xh[16:3],{32}3,4,5,6,,,,,{16}4x,4xh[16:3],{32}2,1,8,7,,,,,
{24}1x,2,3,7x,6,5,1x,2,3,7x,6,5,2x,3,4,8x,7,6,2x,3,4,8x,7,6,{16}4x,5,4,5,3,6,3,6,2,7,2,7,1,8,1,8,
{48}1b,2,3,{16}4h[16:3],,,1,,{48}1b,2,3,{16}4h[4:1],,,1,,27,,,,
{48}8b,7,6,{16}5h[16:3],,,8,,{48}8b,7,6,{16}5h[4:1],,,8,,27,,,,
{48}1b,2,3,{16}4h[16:3],,,1,,{48}1b,2,3,{16}4h[4:1],,,1,,36,,,,
{48}8b,7,6,{16}5h[16:3],,,8,,{48}8b,7,6,{16}5h[4:1],,,8,,36,,,,
{1}4pp5[4:3]/5<4[4:5],{2},,
{4}4<6[2:1],3,2,,5>3[2:1],6,7,,4<6[2:1],3,2,,5>3[2:1],6,7,,4-7[2:1],3,2,1,5-2[2:1],6,7,8,
{8}1,1h[16:1],5,5h[16:1],3,3h[16:1],7,7h[16:1],{16}2b/1b,,4,5,4,,8b/7b<4[8:1],,{8},1,1>4[8:1],,
{4}1b<6[8:1]/5,1>4[8:1]/4x,1<6[8:1]/6x,1>4[8:1]/4x,1<6[8:1]/6x,{8}1>4[8:1]/4x,4x,1-5[8:1],6x,1/8<5[8:1],,
{4}8>3[8:1]/4x,8<5[8:1]/5x,8>3[8:1]/3x,8<5[8:1]/5x,8>3[8:1]/3x,{8}8<5[8:1]/5x,5x,8-4[8:1],3x,8/1>4[8:1],,
{4}1<6[8:1]/5,1>4[8:1]/4x,1<6[8:1]/6x,1>4[8:1]/4x,1<6[8:1]/6x,{8}1>4[8:1]/4x,4x,1-5[8:1],6x,1/8<5[8:1],,{8},4,3,2,18,87,76,65,{8}2h[8:1]/4b,1,8,7<4[8:1]b/4b,,{24}4x,3x,2x,1bx,,,,,,
{48}1b,2,3,{16}4h[16:3],,,2,,{48}2b,3,4,{16}5h[4:1],,,,,8,1,8,1,
{48}8b,7,6,{16}5h[16:3],,,7,,{48}7b,6,5,{16}4h[4:1],,,,,1,8,1,8,
{48}1b,2,3,{16}4h[16:3],,,2,,{48}2b,3,4,{16}5h[4:1],,,,,8,1,8,1,
{48}8b,7,6,{16}5h[16:3],,,7,,{48}7b,6,5,{16}4h[4:1],,,,,1,8,2,7,
{1}4xpp5[4:3]/5x<4[4:5],{2},,
{16}2,5,4,7,1,6,3,8,5,6,1,7,3,4,2,8,{24}3,4,3,4,,,6,5,6h[4:1],5,,,7x,8,1,2,3,4,{32}7x/5x,8,1,2,3,4,5,6,{1}3bx>4[4:3]/7bx,
E
