&title=痛快リズムアクション「B.B.K.K.B.K.K.」
&artist=イロドリミドリ
&first=0.78
&des=ホシノニャイン
&lv_5=14
&inote_5=(180)
{4},,,,
{8}1,8,1,8,1,1,8,8,
{8}27,,27,,36,45,27,,
{8}5,4,5,4,5,5,4,4,
{8}36,,36,,27,18,36,,
{8}2,3,2,1,8,7,6,7,
{8}18,,23,,34,45,56,,
{8}37,37,26,26,15,15,8-4[8:1],,
{8}8x,,2-6[16:1],2,7-3[16:1],,7b/2,,
{8}1h[8:2],,8,2h[8:2],,1,3h[8:2],,
{8}8h[8:2],,1,7h[8:2],,8,6h[8:2],,
{8}2h[8:2],,6,3h[8:2],,7,4h[8:2],,
{8}8h[8:6],,2,3,4,3,2,,
{8}1h[8:1]/7h[8:1],,17,2h[8:1]/8h[8:1],,28,3h[8:1]/7h[8:1],,
{8}4h[8:1]/6h[8:1],,46,5h[8:1]/3h[8:1],,53,12,,
{8}7h[8:1]/8h[8:1],,78,6h[8:1]/5h[8:1],,56,1h[8:1]/8h[8:2],,
{16}2,3,4,,8,7,6,,1,2,
{8}3-7[8:1],7-3[8:1],,5w1[8:1],,5,,,
{8}8-3[8:1],3-8[8:1],8-5[8:1],4-8[8:1],,4,,,
{8}1-6[8:1],6-1[8:1],1-4[8:1],5-1[8:1],,5,,,
{8}2,3s7[16:3],4,,,,
{8}6,7,8,1,2,34,,56,,,
{8}1-3[8:1],3V15[8:2],1-6[8:1],4,,,,,
{8}8-6[8:1],6V84[8:2],8-3[8:1],5,,,,,
{8}2,1v4[8:1],8-5[8:1],7,,,
{8}2,2,3,4,4,
{8}2,13,2,13,7,68,7,68,12,34,78,56,7h[8:2],
{16}4,3,2,,18,,
{8}6,75,6,75,24,24,24,,6,75,3,24,18,,Ch[8:1],,
{8}15,5,26,2,73,7,48,4,
{8}48,37,26,15,78,34,12,56,
{16}4,8,4,8,1,5,1,5,
{16}2,6,2,6,37,26,15,48,
{4}3bh[8:5]/7bh[8:6],,,,
(260)
{4}18,7,18,2,17,B6/B5,28,B3/B4,
{4}78,6,12,3,78,B6/B5,12,B3/B4,
{4}56,C,34,C,57,18,24,18,
{4}2-7[8:1],,6-3[8:1],,
{16}1-5[8:1],,,,1x,,6,7,8,1,2,3,4,5,6,7,
{4}1x/2x,13,78,68,12,78,18,,
{4}65,75,34,24,65,34,65,,
{4}28,3,17,28,3,17,6,,
{4}64,7,35,64,7,35,2,,
{4}3,21,6,78,3,2/1-6[8:1]*-4[8:1],1,,
{4}7,65,2,34,7,6/5-2[8:1]*-8[8:1],5,,
{8}28,,2h[8:1]/8h[8:1],,28,,28,,17,,8,,B7/B2/B3/B6,,Cf,,
{8}64,,6h[8:1]/4h[8:1],,64,,64,,35,,4,,B7/B2/B3/B6,,Cf,,
{8}28,,,1,7<5[8:1],,7,,,,34,,2,,18,,
{8}17,,,8,2>4[8:1],,2,,,,56,,7,,18,,
{8}35,,,4,6<8[8:1],,6,,,,12,,3,,45,,
{4}46,,5b,,,,,,
{8}12,,5,,78,,4,,12,12,1-5[8:1]/2-5[8:1],,1x/2x,,,,
{8}56,,1,,34,,8,,56,56,5-1[8:1]/6-1[8:1],,5x/6x,,,,
{4}12,38,87,16,28,1-4[8:1]/7-4[8:1],17,,
{4}56,47,34,25,64,3-8[8:1]/5-8[8:1],35,,
(180)
{8}2V86<2[8:25]/6V42>6[8:25],,,,,,,,,,,,,,,,,,,,,,,,,,,,,
{8}28,1-7[8:1]*-3[8:1],,1w5[8:1],,1,,,
{8}3,2p3[8:1],1,8-5[8:1],,8,,,
{8}6,7v4[8:1],8,1-4[8:1],,1,,,
{8}2,3,4z8[8:1],,,,
{8}7,6,5,4,3,12,,78,,,
{8}1,5-1[8:1],3,7-3[8:1],,7,,,
{8}4,8-4[8:1],6,2-6[8:1],,2,,,
{8}7,8-5[8:1],1v4[8:1],2,,,
{8}56,12,45,18,27,
{16}2,1,8,7,
{16}6-3[8:1],,,,68,,,28,,,1-4[8:1]/7,,,,
{8}1/5-8[8:1],,5,,
{16}12,,3,4,3,4,3h[8:2],,,,
{8}6,6-1[8:1],,2-5[8:1],3,2-7[8:1]/5,,
{8}2-6[8:1]/7,,26,,18,2-5[8:1]/7-4[8:1],,27,,
{8}36,,27,18,36,4v1[8:1],5v8[8:1],4,5,,,
{8}3-8[8:1]/7,2,3/7-4[8:1],6,7,2h[8:3],,,8,17,26,35,,,,
{16}4,3,2,1,
{32}8x,7x,6x,5x,4x,3x,2x,1x,
{16}7x/8x,,7x/8x,,7x/8x,,,,12,,1h[16:1]/3h[16:1],,1x/3x,,28,,17,,,,
{32}3h[16:1]/5h[16:1],,,,
{16}64,,35,,,,
{16}46,,57,,86,,,,7x/8x,7x/8x,7x/8x,,25,,3x/4x,3x/4x,3x/4x,,56,,56,,,,38,,38,,1x/2x,1x/2x,1x/2x,,3h[8:1]/8h[8:1],,,,
{8}24,2,28,2,35,3,31,3,
{8}64,6,68,6,75,7,71,7,
{16}1,5,1,5,2,6,2,6,
{16}3,7,3,7,48,37,26,15,
{8}4hb[8:4]/8hb[8:3],,,,,
{8}1,2,3,4w8[8:1],,4,,26,35,4,26,1/7h[8:3],,,2,6h[8:4],,,,
{16}5,,4,,3,,2,,1>4[8:1],,1,8,1,,6h[8:1],,
{8}7,6h[8:1],8,6h[8:1],1,6h[8:1],2h[8:2],,
{16}6,,45,,6<1[8:1],,6,5,6,,3-6[8:1],,,,
{8}7-2[8:1],,4z8[8:1],,4,7,6,5-1[8:1],,
{16}5,,2-6[8:1],,8,8,2,,7,,1,,8,,2,,
{8}1,3,2,4,3,5h[8:3],,,
{4}1-6[8:1],1,7-4[8:1],7,5-2[8:1],5,3-8[8:1],3,
{4}1-4[8:1],1,5-8[8:1],5,2-7[8:1],2,6-3[8:1],6,
{8}1,28,1,28,5,46,5,46,
{8}8,17,8,17,4,35,4,35,
{16}1,1,2,2,3,3,4,4,
{16}5,5,6,6,7,7,8,8,
{8}Cf,,7-3[8:1],,7b/2-6[8:1],,7/2b,,
{1}1>5qq1[4:7]/5<1qq5[4:7],,,
E
