&title=Colorless Coldness
&artist=かねこちはる
&first=0
&des_5=xuyu
&lv_5=14.6
&inote_5=(212)
{8},,,,,,,,,,,,,,,,
2-5[8:1],,,6,,,6-1[8:1],,4-8[8:1],4,,7-4[8:1],,7,,,2,24,2,25,6,6-4[8:1],,63,,,
{16}2,4,2,4,2,4,1,3,1,3,1,3,1b,,,,
3-1[8:1],,,,3,,5-7[8:1],,,,5,,2-4[8:1],,,,2,,8-4[8:1],,,,8,,1-5[8:1],,,,1,,,,
7-4[8:1],,7,,,,3-8[8:1],,3,,,,4,5,6,7,1,2,3,4,6,7,8,1,2-7[8:1]*-8-6[8:1]/4h[4:1],,,,,,,,3-1[8:1],,,,3,,5-7[8:1],,,,5,,2-4[8:1],,,,2,,8-4[8:1],,,,8,,,,,,2,,2h[8:1],,,,
{24}5,6,7,8h[8:1],,,1,2,3,4h[8:1],,,,,,
{16}7,6,5,4,3,2,1,8,72,3,4,5,6,7,8,1,2h[4:1]/7h[4:1],
,,,,,,,
2,8,2,8,3,7,3,7,4,6,4,6,3-8[8:1],5,3,5,3,,7-4[8:1],,,,,,
2-5[8:1],,6-1[8:1],,2,,6,,3-7[8:1],,7bh[4:1],,3,,,,8,1,2,3,45,6,7,8,12,3,4,5,6-4-2[8:1]*-3[8:1]/7h[4:1],,,,,,,,,,,,
3,5,3,5,2,6,2,6,1,7,1,7,2-5[8:1],8,2,8,2,,6-1[8:1],,,,,,
3-8[8:1],,7-4[8:1],,3,,7,,2-6[8:1],,6bh[4:1],,2,,,,5,4,3,2,18,7,6,5,43,2,1,8,7-1-3[8:1]*-2[8:1]/6h[4:1],,,,,,,,,,,,
37,2,1,8,7,6,5,4,37,8,1,2,3,4,5,6,3-8[8:1]/7-4[8:1],,37,,,,,,
2-5[8:1],,6-1[8:1],,2,,6,,3-7[8:1],,7bh[4:1],,3,,,,8,1,2,3,8,7,6,5,43,5,6,7,18,2,3,4,5v3[8:1]*v2[8:1]/7h[4:1],,,,,,,,
6,7,8,1,2,3,4,5,62,1,8,7,6,5,4,3,6-1[8:1]/2-5[8:1],,62,,,,,,
7-4[8:1],,3-8[8:1],,7,,3,,6-2[8:1],,2bh[4:1],,6,,,,1,8,7,6,51,4,3,2,15,84,73,62,5/1-5[8:1],,,,
5/1,,,,,,4v7[8:1]*-1[8:1],,,,4,,,,,,8,,8-4[8:1],,,,8>2[8:1]*<6[8:1],,,,8,,,,,,
{8}4-8[8:1]/5,3,2,2pp5[8:3],6,6-1[8:1]b,,6,,
{16}4,3,2,1,8,7,6,5,48,37,26,15,4h[8:1]/8h[8:1],,,,,,,,5v2[8:1]*-8[8:1],,,,5,,,,,,1,,1<7[8:1]*>3[8:1],,,,1-5[8:1],,,,1,,,,,,
6-1[8:1]/4,,6,,2v5-3-8[8:4],,2,,7,,7-3[8:1]b,,,,7,,,,5,6,7,8,1,2,3,4,51,62,73,84,1h[8:1]/5h[8:1],,,,,,,,
4v7[8:1]*-1[8:1],,,,4,,,,,,8,,8-4[8:1],,,,8>2[8:1]*<6[8:1],,,,8,,,,,,
{8}4-8[8:1]/5,3,2,2pp5[8:3],6,6-1[8:1]b,,6,
{16},,4,3,2,1,8,7,6,5,48,7,6,5,4,,
2,,2,,25,,2,,26,,2,,27,,2,,
8,7,6,5,3,2,1,8,4,5,6,7,
{32}1-5[8:1],2,3,4,5,6,7,8,1b-7-3-6[4:2],,,,,,,,,,,,,,,,8h,,,,,,,,,,,,,,,,8h,,,,
{16}8,7,6,5,4,3,2,1,84,3,2,1,8h[8:1]/6,,
6-1[8:1],,6,,2v5-3-8[8:4],,2,,,,7-3[8:1],,,,7,,,,,,
1,8,2,7,3,6,4,5,4-8[8:1],5,3,6,4-6-3-7-1[1:2],,,,,,,,,,,,,,,,,,,,,,,,,,,,,,,,1-4-7[1:1],,,,,,,,,,,,,,,,7v4[2:1],,,,,,,,4-1-7[2:1],,,,,,,,6-2-8-4[1:1],,,,,,,,,,,,,,,,4-2-8[2:1],,,,,,,,8-6-4[2:1],,,,,,,,4-2<1-7<6-4[1:1],,,,,,,,,,,,,,,,4>3-1<8-6>5[1:1],,,,,,,,,,,,,,,,Ch[1:2]/B4h[1:2]/B5h[1:2],,,,,,,,,,,,,,,,
{4}E3,E2,E4,E2/A2/D2,E4h[1:2]/A3h[1:2]/D4h[1:2]/A4h[1:2],,,,C,,{16}B6,B7,B8,B1,B2,B3,B4,B5,6x>3-7>2[1:2],,,,,,,,,,,,,,,,{4}E3,E4,E5,C,B4h[1:2]/E4h[1:2]/E5h[1:2],,,,7h[2:1],,,,
{16}6pp1[8:5],,,,,,4,3,2-5[8:1],,,,2,,,,
{16},,4>2[8:1]/8,,,,74,6,5-1[8:1],,1x-6[8:1],,,,4,,4<7[8:1],,,,24,,2,,{16}1,2,3,4,6,7,8,1,{16}5,4,3,2,15,8,7,6,58,1,2,3,4,5,46,37,2V48[4:1]/8,,,,,,7,6,5-1-3b[4:1],,,,56,,7h[8:1],,,,7h[8:1],,,,6,5,6,,4/7-4b[8:1],,,,37,,1bh[4:1],,,,5,5,3-1[8:1],,,,38,7,6-1b[8:1],,,,62,3,4-8[8:1],,,,47,6,5,,5x,,,2h[8:1],,,6V82[2:1]/4,,,,4,,,,4,,,,4,,,,3V51b[2:1],,,,1,,,,8,,,,7,,,,73,,,,{16}2/8x,3,4,5,1,8,7,6,54,3,2,1,7bx,8,7,8,6,1,5,2,4x,5,6,7,81,2,3,4,5bx/6bx,,8x,1,8h[8:1],,2,,3x,4,3h[8:1],,5,,7x,8,6bxh[8:1],,5,,3,4,2,,1,8,1,8,2bxh[8:1],,5,,{16}3b,4,2,5,1,6,8,7,{24}1bx,2x,3x,7bx,6x,5x,{32}1bx,2,3,4,5,6,7,8,1bxh[2:1]/Cf,,,,,,,,,,,,,,,,
{8}7-3[8:1],7,2,2,1b-5b[8:1]/5b,,16,7-1[8:1],4,7<4b[8:1],4,{24}3bx,2x,1x,
{16}8x,,6-1-5[4:1],,1-5b[8:1],,2V48[4:1]/6,,3,,2,,,,,,{24}1bx-6[8:1]/6,2x,3x,4x,,,1,,,4-8b[8:1],,,
{8}3-1[8:1],4,3,{24}7b,6,5,4h[8:1],,,1,8,7,6,5,4,3,2,1,8/7-4[8:1],,,7,,,
{8}1,2,3bx-8b[8:1],5,6,7bx-4[8:1],1,2,3bxv8b[8:1],5,6,7bxv4[8:1],1,2,3bx-8[8:1],3bx,,,
{8}7,7,68,5/1-6[8:1],2,1/3-8b[8:1],4,3bx/7x,,{16}1,2,3,4,8,7,6,5,{32}2bx,3,4,5,6,7,8,1,2,3,4,5,
{8}8bx-4[8:1]/6b,,84,2-8[8:1],5,2>5b[8:1],5,{24}6b,7,8,
{16}1,,3-8-4[4:1],,8-4b[8:1],,7V51[4:1]/3,,6,,7bx,,,,,,{24}8bx-3b[8:1]/3,7,6,5,,,8,,,5-1b[8:1],,,
{8}6-8[8:1],5,6,{24}2b,3,4,5h[8:1],,,8,1,2,3,4,5,6,7,8,1/2-5[8:1],,,2,,,
{8}8,7,6bx-1[8:1],4,3,2bx-5b[8:1],8,7,6bx,6,
{24}4bx,3x,2x,6x,7x,8x,4x,3x,2x,6x,7x,8x,{32}4bx,3x,2x,1x,8x,7x,6x,5x,4x,3x,2x,1x,8x,7x,6x,5x,
{8}4x/8,8,{16}8,,1-3[8:1]*-7[8:1]/7,,,,1-5[8:1],,,,15,,,,6,7,8,1,4,3,2,1,8,7,6,5,4,3,
{8}28,8,8,1h[4:1],,7h[4:1],,B3h[8:5],,,,,{16}7,6,5,4,1,2,3,4,
{16}6bx,5,7,3,4,2,8,1,{24}7x-1[8:1],6,5,1,2,3,7,,,,,,{16}2bx,4,3,7,5,6,1,8,{24}2x-8[8:1],3,4,8,7,6,2,,,,,,{16}7bx,5,6,2,4,3,8,1,{24}7-3[8:1],6,5,1,2,3,7,,,,,,
{16}2h[8:1]/4h[8:1],,,1h[8:1]/8h[8:1],,,5/6,,
{24}4,3,2,1,8,7,6,5,4,,,,
{16}3bx,4,2,5,1,6,8,7,{20}1,2,3,4,5,1,8,7,6,5,{16}2bx,4,2,4,3,5,3,5,{20}4,3,2,1,8,4,5,6,7,8,{16}2bx,1,2,1,3,8,4,7,{20}5,4,3,2,1,7,6,5,4,,
{32}2bx,3x,4x,5x,6x,7x,8x,1x,2x,3x,4x,5x,6x,7x,8x,1x,2x/6bx,5x,4x,3x,2x,1x,8x,7x,6x,5x,4x,3x,2x,1x,8x,7x,
{16}6bxh[8:1]/2bx,,,6xh[8:1]/4,,,8/6xh[8:1],,,2/6xh[8:1],,,4/6xh[8:1],,4,,
{16}3h[8:1]/7,,,3h[8:1]/5,,,1/3h[8:1],,,7/3h[8:1],,,5/3h[8:1],,5,,
{16}7h[8:1]/3,,,7h[8:1]/1,,,5/7h[8:1],,,3/7h[8:1],,,1/7h[8:1],,1,,
{16}2h[8:1]/6,,,2h[8:1]/8,,,4/2h[8:1],,,6/2h[8:1],,,8/2h[8:1],,8,,
{8}1b,1,2/4x,2,3/8x,3,4/6x,4,3x/5,5,1x/6,6,5x/7,7,2x/8,8,
{16}17,,17,,26,,26,,3,4,2,5,1,6,8,7,{32}1x,2x,3x,4x,1x,2x,3x,4x,8x,7x,6x,5x,8x,7x,6x,5x,{32}1,2,3,4,5,6,7,8,1,2,3,4,5,6,7,8,
{4}1<4[2:3]`1?<8<7<6>5>4b[2:3]/C,,,,,,,,1<4b[2:3]`1?<8<7<6>5>4[2:3]/C,,,,,,,,
8bv5-7-3-1v4[2:6]`8b?v5-7-3-1v4b[2:6]/C,,,,,,,,,,,,,,,,
E
E
