&title=アブストラクト・ノンセンス
&artist=Neru
&first=0.006
&des=人間失格。
&lv_5=14
&inote_5=
(214){4},,,,1,
1,{8}1,{16}8,2,{8}8,3h[8:5]/7h[8:5],
,,,,,,,5h[8:5]/1h[8:5],
,,,,,,,4h[8:5]/8h[8:5],
,,,,,,,2h[8:3]/6h[8:3],
{16},,,,,,4,5,{8}3,3,,7h[8:5]/4h[8:3],
,,,,5,,,2h[8:5]/5h[8:3],
,,,,4,,,2/7,
,1/8,8/1,1/8,8/1,1/8,8/1,1h[8:5]/8h[8:5],
,,,,,,,1b/7b-4[8:1],
,7,{4}3,{8}2,2,4,5b/3b-8[8:1],
,3,{4}7,{8}6,6,8,7b/1b-4[8:1],
,1,{4}6,{8}7,7,5,4/6h[4:1],
,5,7,4,5,2,4,5b/3b-8[8:1],
,3,{4}7,{8}6,6,8,1b/7b-4[8:1],
,7,{4}3,{8}2,2,4,3b/5b-8[8:1],
,5,{4}2,{8}3,3,1,8/2h[4:1],
,7,5,4,2,{16}8,1,{8}8,6b/3b>6[4:7],
,,,,,,,,,,,,,,,,{4}4,
4,4,5/2-5[8:1],
2/6-1[8:1],6/4,{8}2,{16}8,1,{4}8,
2b/7h[8:3],2,{8}2,6,{4}2,
3/5h[8:3],3,{8}3,4,{4}3,
2/8h[8:3],2,{8}2,7,{4}2,
1/6h[8:3],1,{8}1,5,{4}1,
8/2h[8:3],8,{8}8,3,{4}8,
7/4h[8:3],7,{8}7,{16}6,5,{8}6,4,
{4}5/3b-5[8:1],3/7-4[8:1],7/1-5[8:1],{8}6/1,8b>3[8:1],
,4,{4}4h[4:1],{8}5,5,{4}4/6,
7b/3h[8:3],7,{8}7,4,{4}7,
6/4h[8:3],6,{8}6,5,{4}6,
7/1h[8:3],7,{8}7,2,{4}7,
8/3h[8:3],8,{8}8,4,{4}8,
1/7h[8:3],1,{8}1,6,{4}1,
2/5h[8:3],2,{8}2,{16}3,4,{8}3,5,
{4}4/6b-4[8:1],6/2-5[8:1],2/8-4[8:1],{8}8/3,1b<6[8:1],
,5,{4}5h[4:1],{8}4,4,{4}3/5,
7b/5,7,7,7,
6/5,{8}6,5,{4}6,6/5,
5/4,5,5/4,5,
4/3,4,{8}5,{16}4-1[8:1],6,{8}4,8b,
,6,5h[8:1],4h[8:1],3h[8:1],2-6[8:1],8,2,
,7,5h[8:1],4h[8:1],3h[8:1],2-6[8:1],8,2,
,7,8h[8:1],6h[8:1],4h[8:1],2-6[8:1],8,2,
,7,6/1,2,3/7,{16}6,4,{8}5,3,
{4}2b/4,2,2,2,
3/4,{8}3,4,{4}3,3/4,
4/5,4,4/5,4,
5/6,5,{8}4,{16}5-8[8:1],3,{8}5,1b,
,2,4h[8:1],5h[8:1],6h[8:1],7-3[8:1],1,7,
,2,1h[8:1],3h[8:1],5h[8:1],7-3[8:1],1,7b,
,2,3/8,7,6/2,3,4,5b/7h[4:1],
,5,{16}5,6,{8}4,8,{16}4,5,{8}3,6b-1[8:1],
,5,5-2[8:1],8,{4}8h[4:1],{8}1,5b-8[8:1],
,4,4-1[8:1],7,{4}7h[4:1],{8}8,4b-7[8:1],
,3,3-8[8:1],6,{4}6h[4:1],{8}7,7V14[4:1],
,5,{4}5-2[8:1]*-8[8:1],{8},,1,3b-8[8:1],
,4,4-7[8:1],1,{4}1h[4:1],{8}8,4b-1[8:1],
,5,5-8[8:1],2,{4}2h[4:1],{8}1,5b-2[8:1],
,6,6-1[8:1],3,{4}3h[4:1],{8}8,8-5[8:1],
,1,{4}1h[4:1],{16}4,2,5,3,6,4,{8}7b-4[8:1],
,1,8-3[8:1],5,{4}5h[4:1],{8}4,8b-5[8:1],
,2,1-4[8:1],6,{4}6h[4:1],{8}5,1b-6[8:1],
,3,2-5[8:1],7,{4}7h[4:1],{8}6,6V41[4:1],
,8,{4}8-5[8:1]*-3[8:1],{8},,4,2b-5[8:1],
,8,1-6[8:1],4,{4}4h[4:1],{8}5,1b-4[8:1],
,7,8-5[8:1],3,{4}3h[4:1],{8}4,8b-3[8:1],
,6,7-4[8:1],2,{4}2h[4:1],{8}5,5-8[8:1],
,3,{4}3h[4:1],{16}8,7,6,5,{8}4/2,2b-6[8:1],
,5,{4}5h[4:1],{8}8,8,7,1b/6b-3[8:1],
,2,{4}2h[4:1],{8}4,4,3,2b/5b-8[8:1],
,1,{4}1h[4:1],{8}7,7,5,5-2[8:1],
,7-4[8:1],7,1-5[8:1],1,5,6,7b-3[8:1],
,4,{4}4h[4:1],{8}1,1,2,8b/3b-6[8:1],
,7,{4}7h[4:1],{8}5,5,6,7b/4b-1[8:1],
,8,{4}8h[4:1],{8}2,2,4,3<6[8:1],
,7,7,{16}8,1,{8}8,2/7,6/3,5b/4b,
,4-2[8:1],8,4,7,6-1[8:1],2,6b,
4-1[8:1],8,4,7,6-1[8:1],2-5[8:1],6,2b,
,8-6[8:1],4,8,3,2-5[8:1],6,2,
,7-4[8:1],3p1[16:5],7,3,,,6b-2[8:1],
,1,{4}1h[4:1],{8}4,4,3,5b/2b-7[8:1],
,6,{4}6h[4:1],{8}8,8,7,6b/1b-4[8:1],
,5,{4}5h[4:1],{8}3,3,1,2<7[8:1],
,6,{4}6h[4:1],{16}4,5,4,5,{8}3,6b<3[4:7],
,,,,,,,,,,,,,,,,{4}5,
5,5,4/7-4[8:1],
7/3-8[8:1],3/5,{8}7,{16}1,8,{4}1,
2b/4h[2:1],2,2,2,
3/5h[4:1],{8}3,6h[4:1],{4}3,3/7,
4/8h[4:1],4,4/7h[4:1],4,
5/6h[4:1],5,{8}4,{16}5<8[8:1],3,{8}5,1b,
,3,4h[8:1],5h[8:1],6h[8:1],7-4[8:1],1,7,
,2,4h[8:1],5h[8:1],6h[8:1],7-3[8:1],1,7,
,2,1h[8:1],3h[8:1],5h[8:1],7-4[8:1],1,7,
,2,3/8,7,6/2,{16}3,5,{8}4,6,
{4}7b/5h[2:1],7,7,7,
6/4h[4:1],{8}6,3h[4:1],{4}6,6/2,
5/1h[4:1],5,5/2h[4:1],5,
4/3h[4:1],4,{8}5,{16}4>1[8:1],6,{8}4,8b,
,7,5h[8:1],4h[8:1],3h[8:1],2-5[8:1],8,2,
,7,8h[8:1],6h[8:1],4h[8:1],2-6[8:1],8,2b,
,7,6/1,2,3/7,6,5,4b/2h[4:1],
,6,7/4,3,2/5,6,7/1,2,
3b/4b,2,8,6b/5b,7,{16}1,8,1,8,{8}1bq3[8:11]*q4[8:11],
,,,,,,,,,,,,,,,5q8[8:11]/6q8[8:11],
,,,,,,,,,,,,,,,1q3[8:11],
,,,,,,,6h[8:5],
,,,,,,,2h[1:1]/7h[1:1],
,,,,,,,,,,,,3b/6b,
1b/8b,,6/2b-7[8:1],
,2,4-6[8:1],8,{4}4,{8}1,3/7b-2[8:1],
,7,5-2[8:1],1,{4}5,{8}8,6/2b-7[8:1],
,2,4-8[8:1],8,{4}4,{8}1,1pp3[8:1],
,5,{4}5<8[8:1]*>2[8:1],5,{8}1,3/7b-2[8:1],
,7,5-3[8:1],1,{4}5,{8}8,6/2b-7[8:1],
,2,4-7[8:1],8,{4}4,{8}1,3/7b-2[8:1],
,7,5-1[8:1],1,{4}5,{8}8,8<5[8:1],
,1,{4}1h[4:1],{16}4,2,5,3,6,4,{8}7b>2[8:1],
,7,5-2[8:1],1,{4}5,{24}7,6,5,4/2b<7[8:1],,,,,,{8}2,
4-8[8:1],8,{4}4,{24}7/1,6/2,5/3,4b-1[8:1],,,,,,{8}7,
5-8[8:1],2,{4}2h[4:1],{8}1,1V73[4:1],
,4,{4}4>1[8:1]*<7[8:1],4,{8}8,6/2b<7[8:1],
,2,4-7[8:1],8,{4}4,{24}2,3,4,5/7b>2[8:1],,,,,,{8}7,
5-1[8:1],1,{4}5,{24}2/8,3/7,4/6,5b-8[8:1],,,,,,{8}2,
4-1[8:1],7,{4}7h[4:1],{8}8,8V25[4:1],
,6,6,{16}7,8,1,2,3,4,5,6,{8}7b/2b,
,6,7/5,3,4/2,5,6/4,7b,
6/5,4,5/3,2,3/4,5,6/4,7b,
6/5,8,7/5,2,4/3,1,2/4,1,
1/8,7,6b/4b,3,3b/5b,6,6b/4b,5b/3b-8[8:1],
,3,{4}7,{8}6,6,8,1b/7b-4[8:1],
,7,{4}3,{8}2,2,4,3b/5h[4:1],
{16},,3,6,4,5,4,5,2,7,4,5,4,5,{8}2,
,7/5,5/7,4/2,2/4,{16}8,1,{8}8,2b/7b,
,4/5,{4}5-8[8:1]/4-1[8:1],
E
