&title=Light colors (short ver.)
&artist=Lia/VISUAL ARTS / Key
&first=0.452
&des=冬
&clock_count=4
&lv_5=13
&des_5=
&inote_5=(131)
{16}3h[16:3],,,4h[16:3],
,,5h[16:4],,
,,6,,
5,,4,,
{16}6h[16:3],,,5h[16:3],
,,4h[16:4],,
,,3,,
4,,5,,
{16}2h[16:3],,,4h[16:3],
,,5h[16:4],,
,,7,,
5,,3,,
{16}7h[16:3],,,5h[16:3],
,,4h[16:4],,
,,2,,
4,,6,,
{16}7/5h[16:3],,,1h[16:3],
,,3h[16:4],,
2,,1,,
82,,3,,
{16}2/4h[16:3],,,8h[16:3],
,,6h[16:4],,
7,,8,,
17,,6,,
{16}4,5,3h[16:1],,
6,5,7h[16:1],,
3,4,2,6,
5,7,3,1,
{16}2,2,8,8,
1b,,7,7,
5,5,6b,2,
4,3,7,8,
{16}1b/6b,,6,5,
7h[8:1],,8,,
16,,6,5,
8h[8:1],,2,,
{16}15,,6,5,
7h[8:1],,8,,
15,,6,5,
8h[8:1],,2,,
{16}14,,6,5,
7h[8:1],,8,,
14,,6,5,
8h[8:1],,2,,
{16}1<6[8:1]/6,,2,,
4>1[8:1],,5,,
7-4[8:1],,8,,
17,,3,,
{16}83,,3,4,
2h[8:1],,1,,
83,,3,4,
1h[8:1],,7,,
{16}84,,3,4,
2h[8:1],,1,,
84,,3,4,
1h[8:1],,7,,
{16}6-4[8:1]/4,,,,
,,1,,
2-5[8:1]/5,,,,
,,7,7,
{16}5h[8:2],,,,
8-4[8:2],,,,
2,,2,,
1,,1,,
{16}6-4[8:1],,,,
1,,,,
4-6[8:1],,,,
3,,,,
{16}6p4[8:3],,,,
3,,,,
2,,,,
1,,,,
{16}6/8>3[8:1],,,,
7,,,,
3/1<6[8:1],,,,
2,,,,
{16}5,6,5,6,
4,7,4,7,
3,8,3,8,
2,1,2,1,
{16}2-5[8:1],,,,
8,,,,
5-2[8:1],,,,
6,,,,
{16}2q5[8:3],,,,
8,,,,
7,,,,
6,,,,
{16}5-3[8:1],,,,
7-5[8:1],,,,
1-7[8:1],,,,
3,,,,
{16}6,5,6,5,
7h[8:1],,1,,
3,4,3,4,
2h[8:1],,8,,
{16}7/1b<6[8:1],,,,
2,,3,,
4>1[8:1],,,,
7,,6,,
{16}5pp4[4:1],,,,
1,,,,
3-8[8:1],,,,
6,,,,
{16}7/5>2[8:1],,,,
6,,7,,
8<5[8:1],,,,
3,,2,,
{16}1pp8[4:1],,,,
5,,,,
7-4[8:1],,,,
2,,,,
{16}1qq4[8:4]/6,,,,
6,,,,
5,,,,
5,,,,
{16}6,,5h[16:3],,
,4h[16:3],,,
3h[16:3],,,2,
,,8,,
{16}1>4[4:1]/7,,,,
4qq5[8:3],,6h[8:3],,
,,,,
,,,,
{16}7,,35,,
2,,46,,
6,5,7,4,
8h,2h,6h,4h,
{16}8b/4h[4:1],,,,
,,6,,
5-8[8:1],,4,,
3-6[8:1],,3,,
{16}7p4[8:3],,,,
4,,2h[8:3],,
,,,,
4,,3,,
{16}2/8^6[8:1],,,,
4^1[8:1],,,,
5,,,7,
,,61,,
{16}3,4,3,5,
2,6,2,7,
1,8,1,7,
2,6,3,5,
{16}4-1[8:1],,,,
1,,8,,
7-4[8:1],,7,,
4,,3,,
{16}2q5[8:3]/5,,,,
6,,8h[8:3],,
,,,,
6>2[8:2],,,,
{16}2<6[8:2],,,,
6>2[8:2],,,,
2,,,,
8,,7,,
{16}6,5,7,5,
6h[8:1],,8,,
3,4,2,4,
3h[8:1],,1,,
{16}8b>3[8:1]/2,,,7,
8,,6,,
5<8[8:1]/4,,,3,
5,,2,,
{16}1/4qq5[8:2],,,,
8,,,,
6-1[8:1],,4,,
3,,3,,
{16}4<7[8:1]/2,,,3,
4,,2,,
8/1>4[8:1],,,6,
1,,7,,
{16}8qq1[8:2],,,,
4,,,,
2-5[8:1],,8,,
6,,6,,
{16}7^4[8:1]/3,,,,
78,,,,
1/2q6[8:1],,,,
26,,7,,
{16}8<2[8:2],,,,
4,,,,
1,,1,,
82,,73,,
{16}6h[4:1]/4,,,,
5h[8:1],,7h[8:1],,
1h[8:1],,4h[8:1],,
2h[8:1],,8h[8:1],,
{16}5,6,1,7,
3,4,2,8,
5,7,4,6,
2,5,3,6,
{16}4h[16:3],,,6h[16:3],
,,5-8[4:1],,
,,7,,
,7,,,
{16}2h[16:3],,,4h[16:3],
,,5,,
7h[16:3],,,5h[16:3],
,,4,,
{16}2h[16:4],,,,
4V68[16:5],,,,
8,,,1,
,,2,,
{16}3,3h[16:5],,,
4,,6,6h[16:5],
,,5,,
1,1,8,,
{16}2b>4[8:1],,5,,
2,,6,,
1>4[8:1],,5,,
1,,8,,
{16}7b<5[8:1],,4,,
7,,3,,
8<5[8:1],,4,,
8,,2,,
{16}3,4,,6,
5,,2,,
2,4,,7,
5,,71,,
{16}2,5,3,6,
4,7,5,6,
1,7,3,5,
2,8,4,6,
{16}1b-4[8:1],,8,8,
1,,6,,
1-4[8:1]/8,,7,7,
1,,5,,
{16}1-4[8:1]/7,,,,
1-6[8:1]/2,,,
,
1-4[8:1]/7,,,8,
1,
,6,,
{16}1/7<4[8:1],
,,3,
7,,2,,
1b-5[8:1]/4,,,,8/1<3[4:1],,,,
{16}1b/2,,,,
8,,8,,
4,3,5,2,
6,1,7,2,
{16}2-5[8:1]/8,,7,7,
2,,1,,
2-5[8:1]/8,,6,6,
2,,8,,
{16}2/6h[8:1],,4,,
2h[8:1]/6,,4,,
3/7-3[8:1],,5,,
37,,2,,
{16}4b<7[8:1]/1b,,2,2,
4,,1>4[8:1],,
8,8,1,,
6p4[4:1],,5,,
{16}2/6b,,,,
3,,3,,
8,2,6,4,
7,1,5,3,
{16}8b-5[8:1],,1,1,
8,,3,,
8-5[8:1]/1,,2,2,
8,,4,,
{16}8-5[8:1]/2,,,,
8-3[8:1]/7,,,
,
8-5[8:1]/2,,,1,
8,
,3,,
{16}8/2>5[8:1],
,,6,
2,,7,,
8b-4[8:1]/5,,,,1/8>6[4:1],,,,
{16}8b/7,,,,
1,,1,,
5,6,4,7,
3,8,2,7,
{16}7-4[8:1]/1,,,,
3-8[8:1]/7,,,,
73,,5,,
73,,84,,
{16}1b-5[8:1]/5,,,7,
1,,6,,
4>1[8:1]/7<4[8:1],,,,
47,,,,
{16}1,,24,,
8,,57,,
28,,35,,
17,,46,,
{16}2b,4,3,5,
4,6,5,7,
1,5,3,6,
4,7,5,8,
{16}8b/3b,,3,4,
2h[8:1],,1,,
83,,3,4,
1h[8:1],,7,,
{16}84,,3,4,
2h[8:1],,1,,
84,,3,4,
1h[8:1],,7,,
{16}85,,3,4,
2h[8:1],,1,,
85,,3,4,
1h[8:1],,7,,
{16}8>3[8:1]/3,,7,,
5<8[8:1],,4,,
2-5[8:1],,1,,
82,,6,,
{16}16,,6,5,
7h[8:1],,8,,
16,,6,5,
8h[8:1],,2,,
{16}15,,6,5,
7h[8:1],,8,,
15,,6,5,
8h[8:1],,2,,
{16}3-5[8:1]/5,,,,
,,8,,
7-4[8:1]/4,,,,
,,2,2,
{16}4b,8,6,5b,
1,3,7b,,
86,,3,4,
51,1,2qq7[1:3]/8,,
{16},,6bp3[4:11],
