&title=UNKNOWN LEVELS
&artist=Yuta Imai
&first=0.11
&des=zAz vs Aza
&lv_5=14
&inote_5=(165)
{1},7-5v4-2b[2:3]/2h[2:1],1q8[2:1],2-4v5-7[2:3],8p1b[2:1],{4}2/8<2[2:1],E4,C,E8,1>7[2:1],E6,C,E2,8>3[4:1],3x<6[4:1],6<1[4:1],1,{1}2xz6[2:1],
{32}8x/1x>8<1[2:3],E8/E2,B2/B7`C,B3/B6,{8}E6/E4/B4/B5,{4},,,{1},8h[2:3],2v3-5b[2:1],
{8}4/6x,6,5,5,7,7,3,3,4x/2,4,1,1,5/2x,5,3,3,{16}2bx,1,2,1bx,3,8,3bx,8,4,7bx,4,7,5bx,6,5,{2}6h[2:1],{16}8x>5[16:3]*-5[16:3],{8},,,,
{16}4hx[8:3]/7,,,6,,,5,,2/5hx[8:3],,,3,,,4,,6hx[8:3]/5,,,4,,,{8}3-6[8:1],7,3x,{4},
{16}7/1,,,4,6h[8:1],,3,,{8}2-4[8:1]/5,{16},6,2-6[8:1],,7,,2,,,8,{8}8,4,7V51[4:1],5,7,4x,{16}3>8[8:1],,,4,3,,5,,4/6-1[8:1],,,5,6,,2,,3x/4x,,,5x/7x,,,1x/2x,3x/8x,4x/7x,,5x/6x-3[8:1],5x/6x,,,4b,,{4},2x-5[8:1]/5,6x-1[8:1]/2,3x-8[8:1]/6,3/7x<4[8:1],7x-1[8:1]/2,{8}7x/4,4,{16}3,5,2h[8:1],,7x,8,6,2x,1,3,5x,4,6,3x,7,2,8x,1,8x,1,{2}8bqq4[2:1],3-1-7-4b[2:1],
6-8^1-5[2:1],{8}4,3,2v4[4:1],,4>8[4:1],,5,6,7-1v4[2:1],,,,5,,3,,2/6,2/6,2-4[8:1]/6-4[8:1],1x/7x,2/6,,{16}2,1,2-8v3b[4:1],,{8}4,5,6,7hx[4:1],{16}E5,E4,E3,E2,{8}6-4[8:1],1x,6,2-5[8:1],5,2-8[8:1],6,2,7x,,{16}4/6,4/6,4b/6b,,3/5,3/5,3b/5b,,{16}2x,4,2x,4,3x,5,3x,5,4x,6,4x,6,5x-8[8:1],4,3,2,{2}1V36[4:1]/5,7>4[4:1],
{4}1-3[8:1],1b-5[8:1]/8hx[8:1],1b-3[8:1]/8hx[8:1],1b-5[8:1]/8hx[8:1],1b-3[8:1]/8hx[8:1],1b-5[8:1]/8hx[8:1],{8}1b/7x,7x,{16}4/6,4/6,,,3x,5x,{8}2x,{4}7-5[8:1],7b-3[8:1]/1hx[8:1],7b-5[8:1]/1hx[8:1],{8}7/1,,2,3-8[8:1]/5,,7,6-1[8:1],,6/2x,3x,{4}4-2[8:1],4b-6[8:1]/7hx[8:1],4b-2[8:1]/1hx[8:1],4b-6[8:1]/7hx[8:1],4b-2[8:1]/1hx[8:1],{8}4b/8,7,6-1[8:1],,4h[4:1],,{12}2,2,2,4,4,4,6,6,6,{2}8b<1[2:1],Ch[2:1],
(160)
{2}1hx[2:1],
(150)
{2}2hx[2:1],
(140)
{2}3hx[2:1],
(130)
{2}4hx[2:1],
(120)
{2}5hx[2:1],
(116)
{4}6hx[2:1],,,{16}4,4,,5,
(113.7)
{16}5,,3,4,3,5,{8}4hb[4:1],,5,6/4,7h[8:3]/5-2[8:1],,,,2/6h[4:1],,3,5/3,6h[4:1],,{16}3,5,4,6,{8}3h[4:1],,5,4/6,7h[8:3]/5-2[8:1],,,,2>6[4:1]/6,,7,8h[4:1],,{16}5,7,4,6,3,5b,{8}2h[4:1],,4,3/5,6h[8:3]/4V28[4:1],,,,7h[4:1],,1,2/6,3h[4:1]/5,,{16}4,2,5,3,{8}6h[4:1],,5,6/4,3h[8:3]/5V71[4:1],,,,2h[4:1],,8,7/3,{16}6,5,5,6,4,4,,3,5,,,,
{8}2/4h[8:1],3,4h[8:1]/5,6,7h[8:1]/5,5qq5pp6[2:1],{4}8x,8x,8x,4/7<4[8:1],{8},3,3,2/4h[4:1],2h[4:1],,,3/5,3V51[4:1]/5,,7,{4}8bqq4[4:1],,,{8}7/5h[8:1],6,5h[8:1]/4,3,2h[8:1]/4,4,3V52-6[2:1]/5,,6,7,8h[4:1],,,2>5b[8:1],,,6,6,5h[8:1]/7,7,4/6,4/6V83[4:1],,3V16[4:1],,6,,{4}4b,
3>5[2:1]/5,,,{8},8,4,8,3,8,2,8,1-5[8:1]*-6[8:1],,,,3/4,{16}2,2,3/4,,5,5,{8}4/6,4/6,3/7,3/7h[2:1],,E6,E5,E4f,,,
{16}3,4,2,5,3qq5[8:3],,7-4[4:1],7,,,{8},,,{16}7,8,6,1,7pp3[8:3],,2-5[4:1],2,,,{8},,,{16}4,6,3,7,{8}4qq8[2:1],,7-4[4:1],7,,,,1,{4}2/5v2[8:1]*v8[8:1],5b,{16},,7,3,6,4,7,3,8qq4[8:3],,,1,{4}2-5[8:1],,{16}3,4,2,5,{8}1bpp5[8:3],,7-4[8:1],7,,,{16}6,5,7,4,{4}6<3[4:1],{8}4v1[8:1],4,,8,7,6,{4}5v2[8:1]*v8[8:1],5b,{16}7,
(108)
{16}7,,,
(113.7)
{16}6,5,7,4,6pp4[8:3],,2-5b[4:1],2,,,{8},,,{16}2,1,3,8,2qq6[8:3],,7-4b[4:1],7,,,{8},,,{16}5,3,6,2,{8}5pp1[2:1],,2-5b[4:1],2,,,,8,{4}7/4v7[8:1]*v1[8:1],4b,{16},,2,6,3,5,2,6,1pp5[8:3],,,8,{4}7-4b[8:1],,{16}6,5,7,4,{8}8bqq4[8:3],,2-5b[8:1],2,,,{16}3,4,2,5,{4}3>6b[4:1],{8}5v8[8:1],5,,1,2,3,{4}4v7[8:1]*v1[8:1],4b,{16}2,2h[8:1],,4,4,3,3,5,4b,
