&title=あのバンド
&artist=結束バンド
&first=0.5200005
&lv_5=14+
&des_5=json-mk.
&inote_5=
(190){4}1/Cfh[1:1],1,1,1-5[8:1],
1b,{8}6,7-5[8:1],,3,{4}2-4[8:1],
8-4[8:1],{8}2,1-3[8:1],,7,{4}8-6[8:1],
2>5[4:1],{8}5-1[4:1],5,,7,{4}7,
7<4[4:1],{8}4-8[4:1],4,,2,2,{16}1,8,
{8}1h[4:1],7,7,2h[4:1],8,8,3h[4:1],1,
8h[4:1],2,2,7h[4:1],1,1,6h[4:1],2,
2,3,4,8/5,7,6,5/1,2,
{4}3b/4b,{16}4,3,4,3,5,2,5,2,6,1,6,1h[16:27],
{1},{4},,{8},8,
{4}7x/2x-4[8:1],
2b/1,1-5[8:1],1/8,1/8<4<8[2:1],
4,8,,2-4[8:1],
2/1,1-4[8:1],1/8,7/8>3[4:1],
3<6[4:1],6<1[4:1],1s5[4:1],7-3b[8:1],
7,2>4[8:1],2/1,7<5[8:1],
7-4>2[4:1]/8-4>2[4:1],8/7,{8},,2-4[8:1],1,
{4}8/2,{8}1-5[8:1],8,{4}1/7,8V64b[4:1],
4V68[4:1],8<4b[4:1],4>8[4:1],8w4b[8:1],
A8f,6-4[8:1]/2-4[8:1],6/2,2-8[8:1]/6-8[8:1],
2-4-2[4:1]/6-4-6[4:1],2/6,{8},,7-5[8:1],8,
{4}7,{8}1-5[8:1],7,{4}1,{8}8<5[4:1],3,
{4}5-2[4:1],2-7[4:1],7-4[4:1],4z8[4:1],
8,{8}2,2-4[8:1]*-5[8:1],,2-8[8:1]*-7[8:1],,2-6[8:1],
,2,{16},,7,8,{8}7,6,5/4,3,
{4}2/8,{8}4>6[4:1]/6<4[4:1],6/4,,,,5,
6/4,6,3/5,3,4/7,7,5/2,2,
6bV48[2:1],,,8,{2}8x-6[8:1]*-2[8:1],
{16}3h[16:3],,,4h[16:3],,,{8}5h[8:1],{2}6x-8[8:1],
{8}3V51[2:1],,,1,{2}1x-3[8:1]*-7[8:1],
{16}6h[16:3],,,5h[16:3],,,{8}4h[8:1],{4}3x-1[8:1],{16}1,8,7,6,
{8}4/5b-1[8:1],4,4/5,4,4/6-8[16:1],4,4/6,4,
5/4-8[8:1],5,5/4,5,5/3-1[16:1],5,5/3,5,
5b/4b,{16}2,1,{8}3,{16}7,8,{8}6,{16}1,8,2,7,3h[8:5],6h[16:9],
,,,,,,,,,,,,{4}1V35[8:1],
1b/7b-3[8:1],7/5-1[8:1],5/7-5[8:1],7/1V35[8:1],
1/7-1[8:1],5-1[8:1]/7-3[8:1],7/5w1[8:1],5,
{16}3,1,3,1,{8}2-4[8:1],4-8[8:1],2,6w2[8:1],7,6-4[8:1]*-8[8:1],
,6,,2,1/8,2,3/4,5,
{4}6-1[8:1]/2-5[8:1],6/2,7-4[8:1]/3-8[8:1],7/3,
2-4[8:1]/1-5[8:1],2-6[8:1]/1-7[8:1],2-4[8:1]/1-5[8:1],2/1,
{16}7,8,7,8,6,1,6,1,{8}7-3[8:1]/8-4[8:1],6/1,{4}8b/7b`Cf,
{16}1,2,3,4,5/1,8,7,6,5/1,8,7,6,5/1,4/8,3/7,2/6,
{4}5q1[8:1]/1q5[8:1],5>2[8:1]/1<6[8:1],5-8[8:1]/1-4[8:1],5-2[8:1]/1-6[8:1],
5q1[8:1]/1q5[8:1],5>2[8:1]/1<6[8:1],5-8[8:1]/1-4[8:1],5/1,
{16}6,2,6,2,7,3,7,3,{8}8-4[8:1],4-8b[8:1],8,2-5[8:1]*-7[8:1],
,2-6[8:1],,2,,8/1,8/7,7/6,
{4}6x/5bxh[4:5],{8}6-8[8:1],6,,,6qq4[8:1],6,
,,6pp2[4:1],6,,,4w8[8:1],4,
,,2-4[8:1]/6-8[8:1],5/1,{4}2-6b[8:1]/6-2b[8:1],6b/2b,
{8}7/1,8,2/8,1,1/6,7,7/3-7[4:29],2,
3b,5,5,4,5,5,4,5,
4,5,5,4,5,5,4,5,
3,5,5,4,5,5,4,5,
4,5,5,4,5,5,4,5,
3,5,5,4,5,5,4,5,
4,5,5,4,3-7b[8:1],2,{4}3bx,
E6h[4:3]/E5h[4:3]/B4h[4:3]/B6h[4:3]/B5fh[4:3],{8}3,3,2,2,{4}1,
{16}1b/6b,2,{8}3-7[8:1],{16},,3b/7b,6,{4}5-1[8:1],{16}5b/2bw6b[8:1],3,{8}4,
{4}2b,{24}8,1,8,1,8,1,8V64v7[4:1],1,8,1,8,1,{4}8,
{8}1-5[8:1],2-7V14-8b[8:3],1,2,,,{4}D8/D1/A8f,
{8}5/3,2,1/8,7V53[4:1],,3>7[4:1],,7-4V68[8:5],
{16},,3,2,{8}1,1-5b[8:1],,1,{16},,,,8,
7,6,5,4/1,2,3,4,5/8,7,6,5,4/1,2,3,4,
5/2,3,4,5,6/3,4,5,6,{4}7<4[8:1]/3>8[8:1],7/3,
{16}2b,3,4,7b,6,5,2b,3,8b,7,6,1b,2,3,8b,7,
{2}6bh[4:1]/2bh[4:1],{32}8bxw4b[8:1],7bx,6bx,5bx,4bx,3bx,2bx,1bx,{4}8bx,
{16}2bh[8:1]/E1/B8/A8h[8:1],,,3bh[8:1]/E8/B7/A7h[8:1],,,{8}4b/A6/E7/B6,{16},,,,7bh[8:1]/E1/B1/A1h[8:1],,,6bh[8:1]/E2/B2/A2h[8:1],
,,{8}5b/A3/E3/B3,{4},{8}8b/1b,{16}2,3,4,5,{8}6,
{16}7bh[8:1]/E1/B1/A1h[8:1],,,6bh[8:1]/E2/B2/A2h[8:1],,,{8}5b/A3/E3/B3,{16},,,,2bh[8:1]/E1/B8/A8h[8:1],,,3bh[8:1]/E8/B7/A7h[8:1],
,,{8}4b/A6/E7/B6,{16},,,,1-5[8:1],2,3,4,{4}5/1b,
{16}7b-3[16:1],,,8b-4[16:1],,,{8}1b-5[16:1],{16},,,,2b-6[16:1],,,1b-5[16:1],
,,{8}8b-4[16:1],,,6b/2b,{16}1,7,8,8,{8}8,
{16}3b-7[16:1],,,4b-8[16:1],,,{8}5b-1[16:1],{16},,,,6b-2[16:1],,,5b-1[16:1],
,,{8}4b-8[16:1],{16},,,,5-1[8:1],6,7,8,{4}1/5b,
{8}6b/3b,{16}4,5,4,5,3,5,4,5,4,5,3,5,4,5,
3,5,4,5,4,5,3,5,4,5,4,5,3,5,4,5,
2,6,5,6,5,6,2,6,5,6,5,6,2,6,5,6,
2,6,5,6,5,6,2,6,5,6,5,6,2,6,5,6,
1b,8,7,6,5/1,8,7,6,5/4,3,2,1,8/7,6,5,4,
8b/3,1,2,3,4/8,1,2,3,4/5,6,7,8,1/2,3,4,5,
{8}6b/7b,{16}1,8,1,8,1,8,2,3,7,6,3,4,6,5h[16:125],
,,,,,,,,,,,,,,,,{4}E4,
E4,E4,E4,
E3,E2,E1,E8,
B6,B7,B8,B1,
B2,B3,B4,B5,
{8}4,B4,{4}3,{8}2,B2,1,B1,
8,B8,7,B7,{4}6,{8}6,B6,
{4}6h[8:1],7h[8:1],8h[8:1],1b,
{16}8x/1x,,,2x/4x,,,{8}5x/7x,{16}1,8,3,6,{4}1b-3[8:1],
{8}1b-7[8:1],6,1b-3[8:1],4,1b-7[8:1],6,1b-4[8:1],5,
1b-6[8:1],6,1b-4[8:1],4,1b-6[8:1],6,{4}1b,
{16}1/8,7,6,5,3/4,5,6,7,1/8,2,3,4,{8}5/6,8,
2-8b[8:1],7-3[8:1],2V48b[4:1],7-5[8:1],{4}2,D8/D1/A8f,
{8}2b-6[8:1],7-1[8:1],2b,7,4b>2[8:1],8<6[8:1],4b,8,
1b-4b[8:1],7-2[8:1],1b-6b[8:1],7-4[8:1],1b-3b[8:1],7,{4}1b,
{16}7,1,7,1,6,2,6,2,5,3,5,3,{4}8bh[4:1],
{8}1w5[8:1],2,{4}1b`Cf,{16}8,8,8,8,8-5[8:1],8,8,8,
{4}8b-3[8:1],{8}6/8b-5[8:1],7,2/8b-3[8:1],1,6/8b-5[8:1],7,
2/8b-3[8:1],1,6/8b-5[8:1],7,2/8b-3[8:1],1,8b/6,7,
{16}8,7,6,5,4,3/5,2/6,1/7,{8}8-4[8:1],4V61[4:1],2,2-6b[8:1],
,2-4[8:1]*-8[8:1],,2,,6,7/5,3,
{4}5b/1b,{8}5q1[8:1]/1q5[8:1],5h[8:1]/1h[8:1],,,5>2[8:1]/1<6[8:1],5h[8:1]/1h[8:1],
,,1-4[8:1]/5-8[8:1],5h[8:1]/1h[8:1],,,5-2[8:1]/1-6[8:1],5h[8:1]/1h[8:1],
,,5q1[8:1]/1q5[8:1],5h[8:1]/1h[8:1],,,{4}7b/3b,
{16}1,2,3,4,5/1,8,7,6,{8}5b/1b,4b/3b,8b/2b,7b/5b,
1b,1V35[8:3],,5,{4}5V71[8:3],{8}1,1s5[8:3],
,5,{4}5-3[8:1]*-7[8:1],{8},,8/2,1h[16:1],
1,1V75[8:3],,5,{4}5V31[8:3],{8}1,1z5[8:3],
,5,{4}5,{8},7/8,6,3h[16:1],
3,3V16[8:3],,6,{4}6V41[8:3],{8}1,1V74[8:3],
,4,{4}4<6[8:1]*>2[8:1],,7/1,
{8}7,7<2[8:3],,2,{4}2<5[8:3],{8}5,5>8[8:3],
,8,{4}8z4b[4:1]*V26[4:1],{16},,,,,,,,1b,
2,3,4,5/8b,7,6,5,4/1b,2,3,4,5,6,7,8,
2x,3,4,5,6,7,8/1x,2,3,4,5,6,{4}7/8,
{16}8b,7,6,5,4/1b,2,3,4,5/8b,7,6,5,4,3,2,1,
7x,6,5,4,3,2,1/8x,7,6,5,4,3,{4}2/1,
{16}2b,4,3,7b,5,6,1b,4,3,8b,5,6,2b,4,3,4,
3,4,1b,5,4,5,4,5,8b,7,6,5,4/1b,8,7,6,
{8}5b/3b,{24}2,1,2,{8}1,3b/4b,{16}8,1,8,1,7b,4,6,5,
6,5,8b,3,5,4,5,4,{8}4bx/5bxw1[8:1],8bx/1bxw5b[8:1],5bx,Cf,
E
