&title=打打打打打打打打打打
&artist=ヒゲドライバー SELEN
&first=0.51
&des_1=时雨
&des_2=时雨
&des_3=时雨
&des_4=时雨
&des_5=时雨
&lv_5=13+
&des_6=时雨
&des_7=时雨
&des=时雨
&inote_5=(156){4},2<7[4:5],,,6,
6,,,7>2[4:3],
7,,4qq4[2:3],
{1}4pp4[4:5],
{12},,,,,,,,,,,,1,
3,2,8,6,7,1,3,2,8/1,{48},,,,,,,,{16}3,
4,,3,{8}4,2/5,{16}6,5,,6,{8}5,7/4,
{16}3,4,,3,{8}4,2/5,3/4h[4:1],2,{4}2,
{16}6,5,,6,{8}5,7/4,{16}3,4,,3,{8}4,2/5,
{16}6,5,,6,{8}5,7/4,6/5h[4:1],7,8,1,
{16}2,1,,2,{8}1,3/8,{16}7,8,,7,{8}8,6/1,
{16}2,1,,2,{8}1,3/8,2/1h[4:1],3,{4}3,
{16}7,8,,7,{8}8,6/1,{16}2,1,,2,{8}1,3/8,
{16}7,8,,7,{8}8,6/1,7/8h[4:1],6,{4}6,
1-3[8:1],8-6[8:1],1-5[8:1],8-4[8:1],
1>4[8:1],8<5[8:1],1-4[8:1],8,
{8}8v5[8:1],4,3/8,2,1v4[8:1],5,6/1,7,
8v5[8:1],4,3/8,2,1v4[8:1],5,6/1,7,
{4}8-6[8:1],1-3[8:1],8-4[8:1],1-5[8:1],
8<5[8:1],1>4[8:1],8-5[8:1],1,
{8}1v4[8:1],5,6/1,7,8v5[8:1],4,3/8,2,
1v4[8:1],5,6/1,7,{4}3-8[8:1]/7-4[8:1],3b/7b,
{16}6-1[8:1],,,1p4[8:1],,,{8}2,{16}3-8[8:1],,,8q5[8:1],,,{8}7,
{16}6-1[8:1],,,1p4[8:1],,,{8}2,3p7[8:1]*-1[8:1],3,{4}3b,
{16}6-1[8:1],,,1p4[8:1],,,{8}2,{16}3-8[8:1],,,8q5[8:1],,,{8}7,
{16}6-1[8:1],,,1p4[8:1],,,{8}2,3p7[8:1]*-1[8:1],3,{4}3b,
{16}6q2[8:1],,,2p4[8:1],,,{8}3,{16}3p7[8:1],,,7q5[8:1],,,{8}6,
{16}6q2[8:1],,,2p4[8:1],,,{8}3,3-7[8:1]*-1[8:1],3,{4}3b,
{16}6q2[8:1],,,2p4[8:1],,,{8}3,{16}3p7[8:1],,,7q5[8:1],,,{8}6,
{16}6q2[8:1],,,2p4[8:1],,,{8}3,3,3,{4}2b/4b,
2-8[8:1],6-4[8:1],3>8[8:1],7<4[8:1],
1-4[8:1],5-8[8:1],2-6[8:1],7,
{8}8<5[8:1],4,3/8,2,1>4[8:1],5,6/1,7,
8<5[8:1],4,3/8,2,1>4[8:1],5,6/1,7,
{4}7-1[8:1],3-5[8:1],6<1[8:1],2>5[8:1],
8-5[8:1],4-1[8:1],7-3[8:1],2,
{8}1>4[8:1],5,6/1,7,8<5[8:1],4,3/8,2,
1>5[4:1],1,5p1[4:1],6,7h[4:1],,,6,
{16}5<1[16:3],,,1v6[16:3],,,{8}3,{16}4>8[16:3],,,8v3[16:3],,,{8}6,
{16}5<1[16:3],,,1v6[16:3],,,{8}3,4,3,{4}2h[4:1]/5h[4:1],
{8},2-5[8:1],5-1[8:1],2,{16}6h[16:1],,,6h[16:1],,,{8}7,
8<4[4:1],8,4q8[4:1],3,{2}2<7[8:1],
{16}5<1[16:3],,,1v6[16:3],,,{8}3,{16}4>8[16:3],,,8v3[16:3],,,{8}6,
{16}5<1[16:3],,,1v6[16:3],,,{8}3,4,3,{4}2bqq4[4:3]/5bpp3[4:3],
{8},,,,,,,,2,
2,3/1,3/1,8/4,4/8,7/5,5/7,
{16}6,4,6,4,7,3,7,3,6,2,6,2,7,1,7,1,
8,8,8,8,8,8,8,8,{2}8b,
{12}2,2,5,2,2,6,2,2,7,2,,,7,
7,4,7,7,3,7,7,2,7,,,2,
2,2,4,4,4,5,5,5,7,7,7,
1,1,1,3,3,3,{2}5,
{12}2/5,3,4,2/5,3,4,2/5,3,4,2/5,,,7/4,
6,5,7/4,6,5,7/4,6,5,7/4,,,4/5,
3,2,1/8,7,6,4/5,3,2,1/8,7,6,
4/5,3,2,1/8,7,6,{2}5/4,
{12}1/5,1/5,1/5,1b/5b,,,3/7,3/7,3/7,3b/7b,,,1/5,
1/5,1/5,3/7,3/7,3/7,{2}1bV38[8:1]/5bV74[8:1],
{16}2-5[12:1],1,,1,{8}2,8,{16}7-4[12:1],8,,8,{8}7,1,
{16}2-6[12:1],1,,1,{8}2,8,1v4[12:1]/8v5[12:1],2/7,{16},,,,7-4[12:1],
8,,8,{8}7,1,{16}2-5[12:1],1,,1,{8}2,8,
{16}7-3[12:1],8,,8,{8}7,1,1v4[12:1],8v5[12:1],1,8,
{16}3-8[12:1],4,,4,{8}3,5,{16}6-1[12:1],5,,5,{8}6,4,
{16}3-7[12:1],4,,4,{8}3,5,4v1[12:1]/5v8[12:1],3/6,{16},,,,2-6[12:1],
1,,1,{8}2,8,{16}7-3[12:1],8,,8,{8}7,1,
{16}2,4,3,3,6,4,5,5,{8}3b,5b/3b-5[12:1],{4}5b/3b,
E
