&title=My Gal
&artist=Niklas Gabrielsson with Martin Landström & His Orchestra
&first=-0.22
&des=T_BIUI
&clock_count=4
&des_1=T_BIUI
&des_2=T_BIUI
&des_3=T_BIUI
&des_4=T_BIUI
&lv_5=12+
&des_5=T_BIUI
&inote_5=(158.2){1},{16},,,3,{4}4,4,4,
{32}2/4h[4:1],,,,,,,,,,,,,4h[32:11],{4},,{16},{6}3,
{12}6,5,,6,{4}5,5,
{8}5h[8:5]/6h[8:5],{16},,,,,,,,,,,,7,6,
4qq8[16:7],5,,,,,,,,,{8}7,(210.933){12},,(158.2)7,
{4}8h[6:1],{12}7,6,5,1,2,3,5/4,,,{6}6/5,
{12}7,5,,,{4}8/1,3/2,
{6}4,5/3,{12},4h[3:1]/7h[3:1],{24},,,,,,,,,,,,{8}4/7pp2[4:3],
,,,,,{24},,,,,{12}4h[4:1],
,,,,5h[48:15]/3h[48:15],,,,(210.94),,(158.2),
{48},5/3,{96},,,,,,,,,,,,,,,{32}6,{96},,,,,,{12}4,,6,{4}5,7/4,
{1}3v1[8:4]/8<4[8:4],
{8}2/5,{24},4h[24:5]/3h[24:5],,,,,,(210.93){12},,(158.2),3/4,,,4,
{6}3,{12}5,4,,6/5,,,6/7,,,5,
{6}6,{12}4,5,,4/3,,,2,3,,,{1}1V73[8:5]/4V62[8:5],
{24},,{8}3/5,{24},,,4,,,5,,,,,,4/6-8[8:1],,,,,,1v8[24:5]*-3[24:5],
{4},,{16},,,7/4,,,,6/5,
{48},,,,,,,,{6}2,{12}4,3,,5h[4:1],,,,6-2[3:1]/4-8[3:1],
,,,,,,,,,(237.3){4},
(158.2){2}4h[4:1],{4}4h[4:1],5,
6/5,{8}7/4,7h[8:3]/4h[8:3],,,,,{4}1/2,
{8}3/8,8h[8:3]/3h[8:3],{24},,,,,,,,,,,{6}8/3,
{12}4,7,,5/6-4[8:1],,,,{4}3qq2[4:3],
{1}3pp3[2:1],
{4}3/2,5/4,{2}6q2[4:1]/2q6[4:1],{24},
{16},,,7h[6:1]/4h[6:1],{32},,,,,,7/4,{96},,,,,,,,,,,,{24}6,,5,(210.93){12},,,(158.2){32},
{6}2/5,{12}3,4-8[4:1],,,{2}8-6[4:1]*-2[4:1],
{32},,,,,,,3,,,,,,,,4,,,,,,,,5,{16},,,{64},{192},{24}6h[24:5]/5h[24:5],
,,,,,,,,{3}6-4[8:1]/5-3[8:1],{24},,,,,,,4h[24:5]/3h[24:5],
,,,,,,,,{12}4-6[8:1]/3-5[8:1],,,3>6[3:2],,,,,,,,,,,,,,,,5,
{48},,,,,,,,,{16}4,,,{8}4h[16:5],{24},,,,{96},,,,,(210.94){12},,,
(158.2){4}4/3,2,5/4,7,
6/5,2,3/4,8,
{2}5/6pp1[1:1],2>5[2:1],
{12},,,,,,,{24},8h[4:1]/4h[4:1],{24},,,,,,{24},{48},
{16}4/8,,,{48},,6,{48},,,,,,,5h[3:1]/7h[3:1],{4},,{96},,,,,,,{16}
4/6,,,,5/3,,,,4/2,{48},,,,,,,,1,,,,,,,,,,,,,4h[4:1]/3pp5[16:5],,,,,,,,,,,,,,,,,,{16}8,
,,,,,,,,{48},,{8}5h[4:1]/6bqq4[16:5],
,,{4}1b,{8},5/1,,7/3,
,7V53[8:3]/3V17[8:3],,7/3,,,,,{48},,,,{8}4/2,
{24},3,,{8}5,,5/6pp3[8:5],,2,
,3,,4,{48},{24}4h[48:25],,,,,,{48},{24}6h[24:6],,,,,,,
{48},,7,,,,,,,,{4}1h[3:1]/6h[3:1],{48},,,,,,,,,,,,,,,{6}5/2,
{12},3,{48},,,4-7[8:1]*-1[8:1],{4},,{16},{64},{192},{96}1/7,,,,,,,,,,,,,6,{16},,,{64},,,{192},{32}5-8[8:1]*-2[8:1],
{16},,,{64},{192},{24}5<3[24:25],{1},{4},,{24},4/5<8[8:1],
,,,,,,,,,,,1,,1,,8,,7bpp4[24:29]/2bqq5[24:29],{1},{4},,,{16},,,{48}6b/3b<6[2:3],
{1},{4},,,{16},,,{48}8h[48:11],
{4},{16},,,{48},{4}7h[4:1]/5h[4:1],
,6h[4:1],
{48},,,,,,,,3h[16:5],,,,5h[48:11],,,,,{3},{48},,,{4}4h[4:1]/3h[4:1],
{12},,7h[3:1],3h[4:1],,,,,,{4}2h[4:1]/1h[4:1],
,1h[4:1],{48}8,,,,,,,,,,,,{4}8/7,
7/8,7h[4:1]/8h[4:1],,6<3[2:1]/5>7[2:1],
,,{16},,,{24},{48}6/5,,,,,,,,,,,,,,,,,,,{8}2/8>3[8:1],
{4},{16},,,{24},{48}4/5,,,,,,,,,,,,,,,,,,,{8}6-3[8:1]/2-7[8:1],
,,,{16},{96},,,,,{4}1>6[2:1],{24},
{48},,,,,,,,{4}7h[4:1],,8z4[2:1],
{12},{48},,{12}3h[3:1],{4},,{48}3,,,,,,,,,,2/4h[48:12],,,,,,,,,,,,,,,,{24}2/4h[4:1],
,,,,,3qq6[24:19],{48},,,,,3>5[8:5],{1},{48},,{8}8,
{24},{12}6,5,
,3,{6}4,{12},5/2qq6[6:5],,,{3}5h[4:3],
{12},,,,,,,,,{24},{4}4b/7h[8:3],
{8},5,{24},,,{12}1-6[32:19],,,{3}8-3[3:1],
{24},{12},,,,,,,6h[4:1],,,{6}5,
{8}4/7-5[8:1],,{24},,{48},1,,,,,{24},,,{12}3h[48:13],,,{48},{6}4,
{8}5/2-4[8:1],,{24},,{8}8,{24},,,{48},,{12}7/5h[3:1],,{24},,,,
6,,,,{6}5>2[12:7]/4<7[12:7],{12},,,,,,,,,,,{48},,{12}8/1,
,,7/2,,{4}3V52[12:5],
{12}5h[3:1],,,,,,,3/7V58[12:7],,,{6}4,
{12},2h[4:1],{48},,,,,,,,,,,,,,,,,,,{16}2<4[12:5],{48},,,,,,,,,,,,,,,,{12}6h[48:18],
{24},,,,,,,,,,,,,7<1[16:7],{48},,,,,,,7,,,,,,,,,{12}3h[3:1],
,,,,,{48},,,,,{4}3-1[8:1],8v1[4:1]*-6[4:1],
{12},,,,,{48},,,{6}3,{12}3,4,,4,
{6}5,{96}5,,,,,,,,,,,,,6pp1[32:31],{16},,,{64},{192},{2}2pp5[4:3],
{48},,,,,,,,,,{4},,4h[6:1]/8h[6:1],
,8/4,{48},{24}6V48[2:1],{48},,,{24},,,4,,,{48},3h[48:17],,,,,
{24},,,,,,,,,,,,3V15[2:1],,,,,1,,,,{8}8h[48:16],
{24},,,,,,,,,,,7b,,,{48},,,{8}7,{96},,,,,,,,,{6}6/5,
{48},,,{16}3,{48},,{6}4,{96},,,,,,,{32}5/2b,{96},,,,,,,,,,,,,,,,,{48}5/2>8[48:19],,,,,,,,,{96},{16}7h[48:17],,,,,,,,,,6h[16:3],
,,{8}5,{16},7-4[8:1]/4-1[8:1],,,,,,,,,{96},,,,,{16}1/4,
,,,,,,{48},{16}5-3[8:1]/6-4[8:1],
,,,6<3[3:2],{1},{16},,,{12}1b,
{24},,,,,,,{48},1bw5[24:5],{4},,
E
&des_6=T_BIUI
&des_7=T_BIUI
