&title=オッホ愛
&artist=Lol
&first=0
&lv_5=13+
&des=Yuki
&inote_5=(190){1},
{8}3,,,3,,3,,3,,3,,3,2/4,2/4,2/4,,
{8}6,,,6,,6,,6,,6,,6,7/5,7/5,7/5,,
{8}3,,,3,,3,,3,,3,,3,2/4,2/4,2/4,,
{8}6,,,6,,6,,6,,6,,6,7/5,7/5,7/5,,
{8}3,,4,3,4,3,4,3,4,3,4,3,2/4,2/4,2/4,1,
{8}6,,5,6,5,6,5,6,5,6,5,6,7/5,7/5,7/5,8,
{8}3h[8:1],,4,3h[8:1],4,3h[8:1],4,3h[8:1],
{8}4,3h[8:1],4,3,2/4,2/4,2/4,1,
{8}6h[8:1],,5,6h[8:1],5,6h[8:1],5,6h[8:1],
{8}5,{16}5,6,5,6,4,7,4-1[8:1],,,,4/8,,,,
{4}B3/B6,B4/B5,1h[8:1]/6h[8:1],B3/B6,
{4}3h[8:1]/8h[8:1],B3/B6,6h[8:1]/1h[8:1],B6/B3,
{4}4/5,4/5,1h[8:1]/6h[8:1],4/5,
{4}3h[8:1]/8h[8:1],4/5,6h[8:1]/1h[8:1],4/5,
{4}B3/B6,B4/B5,1h[8:1]/6h[8:1],B3/B6,
{4}3h[8:1]/8h[8:1],4/5,6h[8:1]/1h[8:1],4/5,
{4}4/5,4/5,1h[8:1]/6h[8:1],4/5,
{4}3h[8:1]/8h[8:1],B3/B6,6h[8:1]/1h[8:1],B6/B3,
{4}3,3,3,3,3,3,3,3,
{4}5,5,5,5,5,5,5,5,
{4}2/4,2,2/5,2,2/6,2,2/5,2,
{4}5/4,5/3,5/2,5/3,5<8[8:1],5>2[8:1],5w1[8:1],B5f,
{8}3b/7b,,6,6h[4:1],,2,2h[4:1],,
{8}5,5h[4:1],,4,6,5,7,1,8,3,3,4,2,7,1/6,,
{8}3/5,,3,4,2,,1/8,,
{8}7h[4:1]/8,,1,2/7h[4:1],,2,3/7h[4:1],,
{8}3,4/7,5/6,7,1/8,2,3/4-8[8:1],,
{8}1b,,2-6[8:1],,7-3[8:1],,1-5[8:1],,
{4}8<5[4:1],5x>2[4:1],2<7[4:1],4,
{4}3,3q5[4:1],8-4b[8:1],8b,
{4}3,3q5[4:1],8-4b[8:1],8b,
{4}3,3q5[4:1],8-4b[8:1],8b,
{4}3,3q5[4:1],8-4b[8:1],8b,
{8}3,3,2,2,1,1,8,8,7,7,6,6,
{8}5,5,6,6,
{16}4,5,4,5,3,6,3,6,2,7,2,7,1,8,1,8,
{4}1b,2b,3b,8b-5[8:1],
{8}8-3[8:1],2,8-5[8:1],6,8-3[8:1],2,8-6-4-2[4:1],6,
{16}8x/2x,,,,1w5[8:1],,,,1b,,,,3bx/7bx,,,,
{8}2-5[8:1],,6,7-3[8:1],,2,1-5[8:1],,
{4}1b<6[8:1],1b>4[8:1],1b,{8}1-6[8:1],,
{8}1-4[8:1],3,1-6[8:1],7,1-4[8:1],3,1-7-5-3[4:1],7,
{16}1x/3x,,,,2w6[8:1],,,,2b,,,,4bx/8bx,,,,
{8}7-2[8:1],,3,4-8[8:1],,6,5-1[8:1],,
{4}5b>2[8:1],5b<8[8:1],5b,1b,
{8}2h[8:1],1,2h[8:1],8,2h[8:1],7,2h[8:1],6,
{8}2h[8:1],5,2h[8:1],4,3,2/4,2>5[8:1]/4,,
{8}6,7,,5/6,{16}5/6,,5,6,4,,3/7,,
{8}2,2,1,1,8,8,7,7,
{8}7h[8:1],8,7h[8:1],1,7h[8:1],2,7h[8:1],3,
{8}7h[8:1],4,7h[8:1],5,6,7/5,7<4[8:1]/5,,
{8}3,2,,4/3,{16}4/3,,4,3,5,,6/2,,
{8}7,7,8,8,1,1,2,2,
{16}3/5h[8:1],,3,,2,,3/4,,5,,4/6,,7,,1/8,,
{16}2,,3,4,3,,2/5,,6,,5/7,,5/7,,,,
{16}6/4h[8:1],,6,,7,,6/5,,4,,5/3,,2,,8/1,,
{16}7,,6,5,6,,7/4,,3,,4/2,,4/2,,,,
{16}3/5,,3,4,2,,3/5,,2,,1/8,,7,,1/8,,
{16}2,,3,4,3,,2/5,,6,,5/7,,5/7,,,,
{16}6/4,,6,5,7,,6/4,,7,,8/1,,2,,8/1,,
{16}7,,6,5,6,,7/4,,3,,4/2,,4/2,,,,
{1}1b-4<5-8[4:14],,E5h[2:3],,
{1}2v4v2[4:13]/8v6v8b[4:13],,,{4},,,E4/E6,
{16}2/5,,3,4,3<6b[8:1],,2,,3/6,,,,7,,7-4b[8:1],,
{8},1/7,2,3,3>8b[8:1],,3/5,,
{16}6-2b[8:1],,1,1,6,,4x,,3>8b[8:1],,,,3,,7<4b[8:1],,
{16},,7,,1-5b[8:1],,,,1b/8b,,,,6b,,,,
{16}7/4,,6,5,6>3[8:1]*>3[8:1],,7,,6b/3,,,,2,,2-5[8:1]*-5[8:1],,
{8},8/2,7,6,6<1[8:1]*<1[8:1],,6/4,,
{16}3-7[8:1]*-7[8:1],,8,8,3,,5x,,
{16}6<1[8:1]*<1[8:1],,,,6,,2>5[8:1]*>5[8:1],,
{16},,2,,8-4[8:1]*-4[8:1],,,,
{16}8b/1b,,,,3bz7z3[2:1],,,,
{1}C,
{8}3h[4:1]/5h[4:1],,,3h[4:1]/5h[4:1],,,3/5,,
{8}3h[4:1]/5h[4:1],,,3h[2:1]/5,,4,5,6,
{8}6h[4:1]/4h[4:1],,,6h[4:1]/4h[4:1],,,6/4,,
{8}6h[4:1]/4h[4:1],,,6h[2:1]/4,,5,4,3,
{8}3h[4:1]/5h[4:1],,,2h[4:1]/5h[4:1],,,3/5,,
{8}3h[4:1]/5h[4:1],,,3h[2:1]/5,,4,5,6,
{8}6h[4:1]/4h[4:1],,,7h[4:1]/4h[4:1],,,6/4,,
{8}6h[4:1]/4h[4:1],,,6h[2:1]/4,,5,4,3,
{8}3h[4:1]/5,,5,3h[4:1],5,,5/3,,
{8}2h[4:1]/5,,5,2h[8:1],5,2,5/3,4,
{8}6h[4:1]/4,,4,6h[4:1],4,,4/6,,
{8}7h[4:1]/4,,4,7h[8:1],4,7,4/6,5,
{8}3,3,3,3,5,5,5,5,
{16}4,6,4,6,3,7,3,7,2,8,2,8,1,7,1,7,
{16}1,2,3,4,5,6,7,8,1,2,3,4,5,6,7,8,
{4}1bh[4:3],,,C,
{16}2,,2,,4,,4,,2-5[8:1],,5v8[8:1],,2,,6,,
{8}7h[8:1],,1h[8:1],,2h[4:1]/8,1bx,1bx,,
{8}8<5[8:1],,8,3>8[8:1],,3,6>3[8:1],,
{8}2/6,2,1,1,7/8-2v3[4:1],,6,,
{16}7,,7,,5,,5,,7-4[8:1],,4v1[8:1],,7,,3,,
{8}2h[8:1],,8h[8:1],,7h[8:1]/1h[8:1],,4h[8:1]/6h[8:1],,
{8}3h[8:1]/5h[8:1],,4,4h[8:1]/6h[8:1],,7,3<6[8:1],,
{8}8/3,,A7f,,Cf,,A3f,,
{16}2bx/4x,,3,5,4,,6b,,5/7,,8b,,2/1,,3b,,
{8}4/5,6b,{16}7/8,,2b,1,2bx,,3bx,,2bx>5[8:1]/4bx,,,,
{8}2,6<1[8:1],,6,4-8[8:1],,4,7,
{4}7h[8:1],2h[8:1]/8h[8:1],3h[8:1]/5h[8:1],4h[8:1]/6h[8:1],
{16}7bx/5x,,6,4,5,,3b,,4/2,,1b,,7/8,,6b,,
{8}5/4,3b,{16}2/1,,7b,8,7bx,,6bx,,7bx/5bx,,,,
{8}7<4[8:1],7,3>8[8:1],3,5-1[8:1],5,3,3,
{4}2h[8:1],7h[8:1]/1h[8:1],6h[8:1]/4h[8:1],5h[8:1]/3h[8:1],
{1}Cf,
