&title=脳漿炸裂ガール
&artist=わるりり
&first=0.37
&lv_2=1
&lv_4=1
&des_5=Error452
&lv_5=14.2
&lv_6=1
&lv_7=1
&des=Error452
&inote_2=(155)
E
&inote_4=(155)
E
&inote_5=(155){8}2,2,{16}2,6,,6,{8}3,{16}3,7,,,{8}2,
7,7,{16}7,3,,3,{8}6,{16}6,2,,,{8}7,
1,1,{16}1,6,,6,{8}2,{16}2>5[16:1],5,,,{8}5,
8,8,{16}8,3,,3,{8}7,{16}7<4[16:1],4,,,{8}4,
E7/E3,8x,{16}3,5,,6,{8}4,{16}2,4,,,{8}5,
E6/E2,7,{16}2,5,,7,{8}4,{16}3,6,,,{8}5,
E3/E7,1,{16}6,4,,3,{8}5,{16}7,5,,,{8}4,
E4/E8,2,{16}7,4,,2,{8}5,{16}6,3,,,{8}4,
C/B7/B5,1x,{16}5h,3,,5h,{8}7,{16}5h,3,,,{8}5,
C/B4/B2,8,{16}4h,6,,4h,{8}2,{16}4h,6,,,{8}4,
C/B8/B1/B2,1x,{16}5h,2,,5h,{8}8,{16}5h,2,,,{8}5,
C/B7/B8/B1,8x,{16}4h,7,,4h,{8}1,{16}4h,7,,,{8}4,
{16}8b,8,,1,{8}1,{16}5,3,,7,{8}1,{16}6,2,5,3,
{8}4,2,7,{16}E2,5,3,E8,4,6h[8:1],,,2,8,
{8}3,7,2,{16}5,5,,2,5,2,A6,2,A7,2,
{8}8h[8:1],2h[8:1],{16}6,5,7,4,{8}8,2,{16}4,5,3,6,
B4/B3,5,4,6,4,5,3,5,B2/B1,5,4,7,4,5,3,5,
2,2,5,5,3,3,6,6,{8}1,1,{16}5,4,5,4,
{8}5,2,{16}8,7,6,5,{8}4,2,{16}1,2,3,4,
{8}6/5>2[16:1],{16}7,8,{8}1,{16}7,2,6,3,8,1,5,4,,2,
{1}2b<7pp4[16:17],
{48}7,6,5,4>1q5[16:11],{4},,{16},,{24},{16}5>5v8[4:5],6,7,8,
{24}D8,A7,B7,E7,B6,A6,{48},,,{16}A5,{4},,{16},,{32}8>3-1-4-8-2[8:5],
,,,,,,,,,,,,A4/B4,C,B8,{24}A8,D8,A7,B7,E7,B6,A6,B5,E6,E5,A5,D5,
{16}4bx,E5/E4,,6,{8}B6/B5,{16}3,4,2,5,1,6,8,7,5,8,
{8}B1/B7,B3/B5,C/E4/E2/E8/E6,{16}3,4,2,6,5,7,3,5,1,6,
4/E6/B6/B5,4,7,3,{8}3,{16}6,6,4,4,8,8,2,2,,7,
{4}7h[8:1]/B4/B3/E3,{16}5,5,7,2,{8}2,4,{16}1,1,5,5,
3,4,3,5,3,6,3,7,4,8,{8}4,{16}7,4,7,3,
{8}7,{16}8,1,{8}8,{16}3,3,{8}B1/B8/E8,B7/B6/E8,{16}2,2,6,6,
{8}4,4,{16}E4/B3,E8/B7,E2/B1,B5/E6,{8}C/B1/B2/B3/B4,6,{16}3,7,3,7,
{32}3,2,1,8,6h,7h,8h,1h,3,2,1,8,6h,7h,8h,1h,3,2,1,8,7,6,5,4,3,2,1,8,7,6,5,4,
{8}3xh[8:5],,,,,6,5,{16}6,5,
,,{8}4,5,{16}4,5,{64},,,,,,,,1,,,,,1,,,7,,,,,7,,,3,,,,,3,,,6,
,,,,6,,,2,,,,,2,,,5,,,,,5,,,3,,,,,3,,,8,,,,,8,,,5,,,,,5,,,1,,,,,1,,,,,,,,8,,,2,
,,,,2,,,6,,,,,6,,,3,,,,,3,,,7,,,,,7,,,{8}4,6,{64}4,,,,,4,,,{16}3/2,3h[16:9],
{32},,,,,,,,,,,,,,,,,,,1,{64},7,,,,,{32}7,{64},3,,,,,{32}3,{64},6,,,,,{32}6,
{64},2,,,,,{32}2,{64},5,,,,5,,,3,,,,,3,,,{8}2,4,6,,2,
{12}1x/6x,7,8,3,5,4,3x/8x,2,1,7,1,8,
{16}1,8,2,7,1,8,3,6,2,7,4,5,{4}2>4b[8:1],
{8}5b<7[8:1],6,8b>2b[8:1],1,3<5[8:1],4,6,8,
1,2,{16}3,4-8[8:1],,6h[16:5],,,,,,,{8}3,
{16}3,4,2,7,8,6,1,5,2,4,3,6,8,7,5,1,
3,3,4,4,5,5,6,6,{8}1>3[8:1],6,1,A3,
7b<5b[8:1],6,4b>2[8:1],3,1<7b[8:1],8,6>4[8:1],5,
3,1,{16}8,8,,5h[16:3],,,,,{8}3,3,
{16}6,5,7,2,1,3,8,4,7,5,6,1,6,5,8,4,
6,5,8,3,{8}3,{16}4,2,{8}6,8,1-3[2:1],1bV35b[4:3]*V75[4:3],
,,,,,,,,{4}4/Ch[4:1],
E7/E3,B8/B1/B7/B2,1/E6h[4:1],
B7/B4,E7/B6/B5/E5,5/Ch[4:1],E7/E3,
B6/B5/B4/B3,8/E4h[4:1],{8}6/B3/B4,7,8/B3/B4/E3/E5,1,
{4}6/D3/E3h[4:1],8/B1/E2,7/E2/B1,4/A6/A5/D6/E6h[4:1],
E7/C,3/E7/C,7/B3/B2/D3/E3h[4:1],B2/E2/B1,
8/B2/E2/B1,1/A6/D6/A5/B5/B6/E6h[4:1],{8}3/E7/A6/B6,3,2/B6/A6/E7,2,
{4}E6h[4:3]/E5h[4:3]/E4h[4:1],E3h[4:1],E2h[4:1],B1h[4:3]/B8h[4:3],
{8},,C/B7,B6/B5,D6h[8:1],E7/B5h[8:1],Ch[8:1],E3/B1h[8:1],
{4}D2h[4:1],B6h[2:1]/B3h[2:1]/Ch[2:1],{8},,,,5x,
E4h[32:1],8x,D4/E4h[32:1],8x,{32}B4/B3/E4h[32:1],,,8x,,,,,D4/B3/B4/E4h[32:1],,,7x,
,,,6x,{8}A4/A3/B3/B4/E4h[32:1],{32}5x,,,6x,{8}D4/A3/A4/B3/B4/E4h[32:1],5x,{64}6x/E3/B3/B4/A4/D4/E4h[32:1]/A3h[32:1],,,,,,,8x,,,,,,,,,E5/B4/B3/E3/D4/E4h[32:1]/A4h[32:1]/A3h[32:1],,,,,,,8x,
,,,,,,,,{8}E5/E3/D3/D4/A4/A3/E4h[32:1]/B4h[32:1]/B3h[32:1],8x,D3/E3/B3/B4/E5/D5/D4/A3h[32:1]/E4h[32:1]/A4h[32:1],6x,5x/B4/A4/A3/E3/B3/E4/D5/E5h[32:1]/D4h[32:1]/D3h[32:1],{24}7bx,6bx,5bx,1bx,2bx,3bx,
{8}D6h[4:1],E4h[4:1],B6h[4:1],B2h[4:1],E8h[4:1],D2h[4:1],A5h[4:1],E3h[4:1],
B6h[4:1],B1h[4:1],E8h[4:1],D1h[4:1],A6h[4:1]/A5h[4:1]/E6h[4:1],B4h[4:1]/E4h[4:1]/B3h[4:1],B7h[4:1]/B6h[4:1]/Ch[4:1],B1h[4:1]/B2h[4:1]/A2h[4:1],
D8h[4:1]/E8h[4:1]/B8h[4:1],D1h[4:1]/A1h[4:1]/D2h[4:1],E5h[4:1],E6h[4:1]/E4h[4:1],A6h[4:1]/B6h[4:1]/A3h[4:1]/B3h[4:1],B7h[4:1]/B2h[4:1]/A7h[4:1]/A2h[4:1],A8h[4:1]/A1h[4:1]/E1h[4:1]/B8h[4:1]/B1h[4:1],D1fh[8:1],
{4}4-8b[1:4]/5-1[1:4],A7h[8:5],{2}A2h[8:3],
{8},E7h[8:3]/E3h[8:3],{16},,,,,,,,,A6h[8:3]/A3h[8:3],,,,,,,,,{8}E6h[8:3]/E4h[8:3],
{32},,,,,,,,,,,,,,,,,,,D6h[32:13]/D4h[32:13],
{4},,{16},,{4}A4f/A5f,
{16}3,4,{8}2,5,2,{16}7,5,6,5,{8}7,{16}8,3,
{8}1,2,3,{32}3,,,5,{64}2,,,,,5,,,{16}1,1,{64},,,,,,,,,7,,,,5,,,,6,
,,,6,,,1,,,,,1,,,7,,,,,7,,,4,,,,,4,,,5,,,,,5,,,2,,,,,2,,,8,,,,,8,,,1,,,,,1,,,6,
,,,,6,,,{8}2,{64}3,,,,,3,,,7,,,,,7,,,{8}1,1,{16}2,7,3,5,
{8}E8/E2,E8/E2,{16}2,7,3,6,{64}B6/B3,,,,,4x,,,{8}5x,{16}E3/E2/E1,C,{8}E7/E6/E5,
{64}E1/E8/E2,,,,,E3,,,A4,,,,,E7,,,{8}A5,{64}A7/A2/B7/B2,,,,,C,,,{8}B5/B4,5x/4x,{64}8/1,,,,,7,,,{8}6/2,
{64}2,,,,,4,,,7,,,,,5,,,2,,,,,4,,,7,,,,,5,,,A2,,,,,A4,,,A7,,,,,A5,,,A8/A1,,,,,E7,,,{16}A5/A4,E3,
{8}8x,{32}7x,,,6x,,,,4x,,4x,{64},7x,{192},,,,,,{12}7x/1h,2h,3h,8/4h,7,6,
{16}4b,5,3,6,2,7,3,6,1,8,1,7,3,6,4,5,
2bh,3,1h,8,6h,7,4h,5,3bh,4,5h,6,8h,7,2h,1,
5b,6,1,8,3,4,1,8,5,7,1,6,1,7,3,8,
2bh,6,1h,5,7h,3,8h,4,2bh,6,1h,5,7h,3,8h,4,
3b,4,2,5,1,6,2,5,2,5,1,6,8,7,1,6,
2bh,3,1h,4,3bh,4,2h,5,4bh,5,3h,6,5bh,6,4h,4h,
6b,5,7,4,8,3,7,4,7,4,8,3,1,2,8,3,
7bh,6,8h,5,6bh,5,7h,4,5bh,4,6h,3,4bh,3,5h,5h,
3b,3,6,6,4,4,5,5,1-5[16:1],1,,6,{4}C,
{16}3b,5,4,4,6b,4,5,5,2b,4,3,3,7b,5,6,6,
4b,5,3b,6,2b,7,1b,8,1b,2,8b,7,3b,4,6b,5,
{32}3bx,2x,1x,8x,7x,8x,1x,2x,3bx/6bx,7x,8x,1x,2x,1x,8x,7x,3bx,2x,1x,8x,7x,6x,5x,4x,3xs7[2:1],2x,1x,8x,7x,6x,5x,4x,
{8}3bxh[8:5],,,,,6,7,{16}1,2,
,,{8}4,{16}6,7,,2,{48},,,,{12}5,{192},{64}5,{192},,,,,,,,,,,,{12}3,3,{192},,,,,,,{64}7,,,6,
,,,,3,,,4,,,,,7,,,8,,,,,1,,,2,,,,,7,,,6,,,,,2,,,1,,,,,5,,,6,,,,,3,,,4,,,,,8,,,7,
,,,,1,,,2,,,,,7,,,6,,,,,2,,,3,,,,,6,,,{8}5,2,{64}4,,,,,4-1[64:27],,,{16}5-8[8:3],5,
{32},,,,,,,,,,,,,,,,,,,1,{64},7,,,,,{32}7,{64},3,,,,,{32}3,{64},6,,,,,{32}6,
{64},2,,,,,{32}2,{64},5,,,,5,,,3,,,,,3,,,{8}7,4,6,4,2,
{12}6bx/3bx,8,1,6,3,5,2bx/7bx,1,8,3,5,4,
{16}2bx,7,1,8,3bx,6,1,8,4bx,5,1,8,{4}5bx,
,,2s6b[16:1]/1q5[16:1],{64}B1/B2/E2,C,B4,B5,{16}D6/A5f/A6f,,,{4}2p5[16:1]/1s5b[16:1],
{64}E1/E2/B1,B7,C/B3,B5,{16}A5f,,,{4}1z5[16:1]/2s6b[16:1],{64}E1/E2/E3,B8/B3,C,E7/E5,{16}D6f/A6/E6/A5,,,{4}2s6[16:1]/1s5b[16:1],
{128}A1/E2/E1,B8,B7,C,B4,B5,{64}E6,{16}D6/A6f/A5f,,,1,5,3,7,1,7,3,5,
4,8,2,6,4,6,2,8,7/3,6/2,5/1,4/8,3,2,1,8,
{8}7bz3[16:1],4bs8[16:1],,,{4}7xz3b[16:1]/8xp4[16:1],{64}E8/E7/E1,C/B1,B5/E6,B4/B3,{16}D4/A4f/A3f,,,{4}7q4[16:1]/8z4b[16:1],
{64}E1/E8/B8,B2/B1,C/B6,B4/E5/E4,{16}A4f,,,{4}8s4[16:1]/7z3b[16:1],{64}E1/E8/E7,B1/B6,C,E3/E5,{16}D4f/A3/E4/A4,,,{4}7z3[16:1]/8z4b[16:1],
{128}A8/E8/E1,B1,B2,C,B5,B4,{64}E4,{16}D4/A3f/A4f,,,8,4,6,2,8,2,6,4,
5,1,7,3,5,3,7,1,2/6,3/7,4/8,5/1,6,7,8,1,
{8}2b-6[16:1],7b-3[16:1],,,{4}6bxv3b[16:1]/2bxv7b[16:1],{128}A6,A2,B6,B2,C,B7,B3,A7,{16}A3,,,{4}7bx-2b[16:1]/3bx-6b[16:1],
{128}A7/D7/A3,B3,{64}B7,{128}C,B6,B2,B6,{16}D3/A2/A6,,,{4}2bxv7b[16:1]/6bx-3b[16:1],{128}A2,B6/E6,E2,C/E5,E8,B3/E4,A7,D3,{16}D7,,,{4}7bx-2b[16:1]/3bxv6b[16:1],
{128}A3/A7,E4/B3,E8/B7,C,E2,E6,,A6,{16}A2,,,8x/4x-2<8b[4:1]*>8[4:1],7x/3x-1<7b[4:1],6x/2x-8-6[4:1],5x/1x-7<6[16:3]*-7<6[16:3],,,,,3xV17[4:1]*>8b[16:3],
2xV86[4:1],1xV75[4:1]*<6b[16:3],8xV64[4:1],,,,,3x,2x,1x,8x,7x,6x,5x,4x,
{8}5x-7b[16:1],4x-2[16:1],{4},{96}8xh[4:1]/1xh[4:1],{4},{96}A8/A1,E1,B8/B1,B7/B2,C,B6/B3,B5/B4,E5,A5/D5/A4,,,,,,,,,{16}5x,
4x,6x,{8}3x,{16}1x,8x,2x,7x,{8}7x/1x,8x/2x,{16}3x/6x,6x/3x,,5<6-8>1-3b[16:3]/4-2<1-7<6[16:3],
,,,,,,,,5,3,5,2,6,1,7,8,
7,8,6,1,5,2,4,3,5x<6-8>1b[4:1],6x<8-2[4:1],7x-1>3[16:5],8xV24[16:5]*V24[16:5],{8}1x>4b[4:1],{16}A7/B7,A8/B8,
{8}A1/B1,7x,6x,4bxh[8:15],{1},{4},,,{16},1x,
8x,7x,{2}6xh[16:29],
{16},,,,,,7x,8x,{2}1xh[16:13],
{16},,,,,,7/2,3/8,{2}4h[1:1]/1h[16:9],
{16},,,,,,A5,A6,{8}7xh[8:3],{16},,,,4,8,
,2,6,2,6,7,8,1,{2}2h[1:1],
{8},,,,,2/6,{16}3/7,6/2,,5/1,
6/2,7/3,8/4,5/1,,1/5,{8}3/7,8,8,{16}8,6,,6,
{8}4,{16}4,2,{64},,,,,,,,8b,A8,B8,C,B4,A4,
E
&inote_6=(155)
E
&inote_7=(155)
E
