&title=七色シンフォニー
&artist=コアラモード. /《四月是你的谎言》OP2
&first=0.037
&des=谱师A
&wholebpm=155.000
&lv_5=13
&des_5=
&inote_5=(155)
{8},,,,
5h[8:3],,,3pp6[8:4],,2,,1h[2:1],
,,,7pp1[4:1],,,,4>5b[16:11],
,,,,{16},,,,{8},,
36,27,18,,{16}E7,E6,E5,E4,E3,E2,E1,E8,
{8}7xpp4[16:13],,,,,,,,
3V14[8:5]*pp4[8:5],,,,,,,,
6<4[8:7],,,,,,,,
5pp8[8:5]*qq2b[8:5],,,,,,,,
1hx[8:3],,,{16}7>2[4:1],6,5,,{16},,{8},,
,4b/3b,6b/2bpp5[2:1],,2b/1b,,,,
7,,7,5h,6,,4<7[8:1],,
2,,2,4h,3,,5>2[8:1],,
6,,6,4h,5,,2h[8:6],,
E3,B3,C,B7,E7,3,4,5,
2,,2,4h,3,,5>2[8:1],,
7,,7,5h,6,,4<7[8:1],,
3,,3,5h,4,,7,,
3,7/4,6,5pp4[8:3]/3,,,,,
3,3^1[8:1],,7,7^5[8:1],,4,,
2,2^4[8:1],,6,6^8[8:1],,1p1[8:3],,
5pp4[8:4],,,,,,,,
3,7/4,6,5/3qq4[8:3],,,,,
5,5pp7[6:1],,2,2-4[8:1],,6,,
5,5qq4[6:1],,8,8<6[8:1],,5,,
4,4V63[4:1],,,,,8,2,
35,46,57,8^5[8:1]*^3[8:1],,,,,
2-4[8:1]/4,,,6,6<1[8:1],,4,3,
3>7[16:3],{16},7>3[16:3],{8},5,,4,4pp4[4:1]*qq4[4:1],,
4,,,6,6-4[8:1],,4,3,
3h[4:1],{16},1,{8}1,2,,5,5-2[8:1]*-8[8:1],,
5,,,1,1<6[4:1],,2,3,
4>1[4:1],,5,6,7<4[4:1],,3,2,
1-6[8:1],,5<8[8:1],,4qq2[6:1],,7qq1b[8:3],,
3,,,2,47,6,{16}3,3,{8}4,
26,,,8,8-5[8:1],,1,1-4[8:1],
2,,6,6<1[4:1],,5,4,3,
2>2b[2:1],,,7,7,,5,5,
4>1[8:1],,7<4[8:1],,2-6[8:1],,6-2b[8:1],,
8-4[8:1],,1h[4:1],,3>8[8:1],,4h[4:1],,
5<8[8:1],,3-6[8:1],,1-5[8:1],,8,,
36,5,34,2,{16}1h[8:1]/8h[8:1],,,5h[8:1]/7h[8:1],,,24,,
{8}35,46,27,,{16}6,5,7,,3,4,2,,
{8}1>4[8:1],1,6pp8b[8:1],6,5-2[8:1],5,7<4[8:1],7,
2-8-3-5b[8:3],2,5,6h[4:1],,,7,5,
8>3[8:1],8,4V25b[6:1],4,7-3[8:1],7,4>1[8:1],4,
8qq5b[8:3],8,1,2h[4:1],,,{16}3,3,{8}4,
{16}5>2[8:1]/6,,,8,,,6,,4<7[8:1]/3,,,1,,,3,,
4/8-4[8:1],,,,,,3,5,4xV25[6:1]*pp5b[6:1],,,,,,,,
4x/6x<1[8:1],,,2,,,4,,3>8[8:1]/5,,,7,,,5,,
{8}B3/E4,E8/B7,B1/E2,B5/E6,2x/4x,3x/5x,4x/6x,5x/7x,
8<5[8:1],8,2pp4b[8:1],2,6-1[8:1],6,5>2[8:1],5,
8-4V61b[8:3],8,1,2h[4:1],,,3,8,
1-7[8:1],1,2-6[8:1],2,3>8[8:1],3,4-8[8:1],4,
5bqq1b[8:3],,6,6,,8,27,,
{16}35,,,,46,,46,,25,,25,,3x,4x,6x,7x,
{8}8x<5[8:1],,,,{32}E3,E4,E5,E6,E7,E8,E1,E2,{8}C,,
3bxV14[1:1]*pp4b[1:1]/4bx,,,,,,,,
