&title=Fine Logic
&artist=Sephid
&first=0.2
&des_1=Colorful Skin
&des_2=Colorful Skin
&des_3=Colorful Skin
&des_4=Colorful Skin
&des_5=Colorful Skin
&lv_5=14
&des_6=Colorful Skin
&des_7=Colorful Skin
&des=Colorful Skin
&inote_5=(175){1},
{4}6h[4:7]/B4,
B3,B2,B1,
B8,B7,B6,{8}B5,B4,
{4}5h[2:3]/B3,B2,B1,B8,
B7,B6,{8}B5,{16}B4,B3,{4}B2,
6h[4:7]/B1,B8,B7,B6,
B5,B4,B3,{8}B2,B1,
{4}7h[2:3]/B8,B7,B6,B5,
B4,B3,{8}B2,{16}8x,7x,6x,5x,{24}4x,1x,2x,
{4}3bxqq8[4:7],3/5,5,5,
6,6,6,7,
7bqq4[4:7],7/1b,1,1,
2,2,2,3,
{8}3,3,3,3,3/6,6,6,6,
6/1,1,1,1,1/5,5,5,5,
{16}2,4,2,4,3,5,3,5,4,6,4,6,5,7,5,7,
{4}6x<3>6[2:1],Cfh[2:1],{8},,,,1bx/6,
2,3/5,4,6/5,7,8/2,8,
{4}1h[8:1]/7h[8:1],{8}1/7-5[8:1],8,7/1-5[8:1],8,1/7-4[8:1],8,
{4}7/1,{8}2/6,3,7/4,8,1/3,2h[8:1],
,4,5/1,6,7/2,3,4/8,7,
{4}3h[8:1]/6h[8:1],{8}3/6,2,1/5,6h[8:1],,7,
{4}2h[8:1]/8h[8:1],{8}8/2-4[8:1],1,2/8-4[8:1],1,8/2-5[8:1],1,
{4}8/2,{8}7-4[8:1],7,1-5[8:1],1,7,7,
{4}8b/4-1[8:1],4b/8-5[8:1],8b/4w8[8:1],4b,
{2}2h[4:1],2h[4:1],
3h[4:1],3h[4:1],
4h[4:1],4h[4:1],
{16}5h[4:1],,,,,,,4x,7x,,,7x,,,{8}7x,
{2}6xh[4:1],{4}3/5h[4:1],B3,
6/4h[4:1],B6,3/5h[4:1],B2,
6/4h[4:1],6V82[6:1],{8}6b/3b,4qq8[24:11],,4b/6b,
,,{4}7<5[8:1],7/1pp3[16:3],1/6,
7h[4:1],3-6[8:1],{16}8<5[16:3],,,8,,,{8}4,
{4}3-7[8:1],3/5,{16}8/6,,,7/5,,,{8}6/4,
{4}5b/3bp7b[4:1],7V13[4:1],{16}4,,,5,,,{8}6,
{2}7h[4:1]/3-6[8:1],3h[4:1]/7-2[8:1],
{4}4h[4:1],6-3[8:1],{16}1>4[16:3],,,1,,,{8}5,
{4}6-2[8:1],6/4,{16}1/3,,,2/4,,,{8}3/5,
{4}6b/4b-8[8:1],7<4[8:1],{16}1,,,2,,,{8}3,
{4}5-8[8:1],4/5-1[8:1],{16}7/5,,,7,,,{8}8,
{2}7/1>6[8:5],5<2[8:5],
1>6[8:5],5<2[8:5],
1>6[8:5],5<2[8:5],
1>5[2:1],5-1[6:1],
{4}8b,8,7b/3b,3,
4b/6b,6,5b/3b,3,
{16}2,4,2,4,3,5,3,5,4,6,4,6,5,7,5,7,
{1}1bs5[2:1],
{8}7-4[8:1],8,7/1-6[8:1],2,1/3-8[8:1],4,{4}3/5,
{8}7h[8:1],{32}2,3,{16}4,{8}8h[8:1],{32}3,4,{16}5,{8}8h[16:1],7/1h[16:1],{4}6h[16:1]/2-5[8:1],
{8}2-6[8:1],7,2,8,{16}7,5,7,5,8qq4[16:5],4,8,4,
{4}8,{8}2-4[8:1],1x,2/6-8[8:1],5x,6/2-5[8:1],1x,
2/6bp1[8:1]*v1[8:1],6b,{4}6b,{8}7/2,3,4/7,8,
2h[8:1],{32}7,6,{16}5,{8}1h[8:1],{32}6,5,{16}4,{8}1h[16:1],2/8h[16:1],{4}3h[16:1]/7-4[8:1],
{8}7-3[8:1],2,7,1,{16}2,4,2,4,1-5[8:1],5,1,5,
{8}6xh[16:1]/1x-3[16:1],6xh[16:1],7xh[16:1]/1x-5[8:1],7xh[16:1],8xh[16:1]/1x-3[16:1],8xh[16:1],{4}1x/7xh[16:1],
{8}6h[4:1],{32}E5,E6,E7,E8,{8}8x-3[8:1],5h[16:1],8,6<8[16:1],4,{32}6/2,3,{16}4,
,,{8}3h[16:1]/8h[16:1],2h[16:1]/7h[16:1],1h[16:1]/6h[16:1],7h[16:1]/2h[16:1],3h[16:1]/8h[16:1],{4}1h[12:1]/4h[16:1],
{8}7-4[8:1],3h[16:1],7,3,5,{16}2,4,{8}2,{16}5,3,
{24}5,6,7,8xqq5[8:5],,,,,,{8}4,4,3,3,2,
{4}2b-4[8:1],2/8b-6[12:1],{8}8-5[8:1],4,8-4[8:1],3,
8,1-5[8:1],2-4[8:1],1-7[8:1],2-6[8:1],1-5[8:1],2,1,
2,2,6/3,4,8/5,7,6/2,6/2,
{4}5b-8b[8:1]/1b-4b[8:1],5b<3b[4:1],{8}5b/7b,B6fh[8:1],{1},,,,{4},{8}3/D6fh[1:3],
3,3,3,2/A6fh[4:11],2,2,2,
1,1,1,1,8,8,8,8,
{16}B1,B2,B3,B4,B5,B6,B7,B8,{32}B1,B2,B3,B4,B5,B6,B7,B8,E1,E2,E3,E4,E5,E6,E7,E8,
{4}8bx,{8}1bx,{16}2bx,3bx,{8}4bx,Cf,,,6/3,
{16}5,4,{8}7h[8:1],{16}4,5,{8}2h[8:1],{16}5,4,{8}7h[8:1],2-4[8:1],
1,2/8-4[8:1],1,8/2,1,5<8[8:1],4,5/3h[8:1],
{16},,4,5,{8}2h[8:1],{16}5,4,{8}7h[8:1],{16}4,5,{8}2h[8:1],7-5[8:1],
8,7/1-5[8:1],8,1/7,8,4>1[8:1],5,4/6-8[8:1],
5,6/4-2[8:1],5-1[8:1],4,{4}5,{8}5,4,
7,2,{48}3x/8-5[8:1]*-3[8:1],4x,{24}5x,,,,,{4}8,{8}2-4[8:1],1,
{4}2/7-3[8:1],7/1-5[8:1],1/8-4[8:1],8/3-1[8:1],
3/7V53[8:1],{8}7/3,2,1,{16}4,2,{8}5h[8:1],{16}3,6,
{8}4h[8:1],{32}5,6,7,8,{4}1-5[8:1],{8}4,4-8[8:1],3,4/7<4[8:1],
,7/2,{32},,,,6/8V64[8:1],1,2,3,{8}4,2/8V24[8:1],,8/6,
{4}7h[8:1],{8}8-4[8:1],7,8/2-6[8:1],1,2/7<5[8:1],8,
{4}7/4>1[8:1],4/7-3[8:1],7/2-4[8:1],2/6,
{8}5h[8:1],{16}3,4,{8}2h[8:1],{16}6,3,{8}7h[8:1],{16}5,8,{4}4h[8:1],
2xpp4[8:1]/1x<5b[8:1],{64}2x/1x,D1,A8,D8,A7,D7,A6,D6,{8}A5,{4}7xqq5[8:1]/8x>4b[8:1],{64}7x/8x,D1,A1,D2,A2,D3,A3,D4,{8}A4,
6xh[8:1],{16}4x,7x,{8}5h[8:1],{16}8,4,{8}7h[8:1],{16}3,8,{4}4h[8:1],
2xpp3[8:1]/1x<5b[8:1],{64}2x/1x,D1,A8,D8,A7,D7,A6,D6,{8}A5,{4}7xqq6[8:1]/8x>4b[8:1],{64}7x/8x,D1,A1,D2,A2,D3,A3,D4,{8}A4,
2bx/5x,1x,8/7,6,5/3,2,1/7,8,
{4}7h[8:1]/1h[8:1],{8}1/7-3[8:1],7,7/1V35[8:1],1,1/7-5[12:1]*-1[12:1],7,
{4}7,{8}2/5,3,7/4,8,1/3,2h[8:1],
,4,5/2,7/1,6/3,2/8,4/6,7/1,
{4}3h[8:1]/6h[8:1],{8}3/6,2,1/5,6h[8:1],,7,
{4}2h[8:1]/8h[8:1],{8}8/2-6[8:1],1,2/8V64[8:1],1,8/2-4[12:1]*-8[12:1],1,
{4}2,{8}5/7,3,7/4,8,1/3,4,
{4}2xpp4[8:1]/5x<1b[8:1],{64}2x/5x,D6,A6,D7,A7,D8,A8,D1,{8}A1,{4}7xqq5[8:1]/4x>8b[8:1],{64}7x/4x,D4,A3,D3,A2,D2,A1,D1,{8}A8,
E
