&title=瑠璃色金魚と花菖蒲
&artist=白石紬
&first=6.63
&des=bbben/kanna
&lv_5=13+
&inote_1=(108)
{4}1-4[4:1],,,,,,,,,
(54)
{4},
(50)
{4},
(51)
{4},,
(142)
{4}
&inote_5=(108)
{4}8^5[4:3],,,,,,,,,
(54)
{4}8h[8:1],
(50)
{4}8h[8:1],
(51)
{4}8h[8:1],8h[8:1],
(142)
{4}
1b^6[4:3],,,,,,,,
7-4[4:1],,,,2-5[4:1],,,,
2<5[8:3],,,,7>4[8:3],,,
1b/8b,
{8}
24,3,45,6,75,6,54,3,24,3,45,6z2[4:1],,,,,
8,7,6,5,4,3,2,1,
{16}8,2,8,2,7,3,7,3,6,4,6,4,5,3,5,3,
{16}
,,24,,,57,,,28,,,35,,,68,,
{4}1bw5b[4:6]/7,,,,,,,,
{8}
2,4,2,,8,6,8,,
4qq4[4:1]/6pp6[4:1],5,
46,,,,E6/B5f/E5,,
4-8[4:1],,5,,5,,1-7-3-5[4:2],,6,,6,,6,,
7<3[4:1],,2>6[4:1],,,8,,,18,,
6pp3[4:2]/3qq6[4:2],,,,,,,,
45,,36,,27,,7<2[4:1],,,,1-6[4:1],,2,,,,
1^4[8:1]/8^5[8:1],,,,,36,3-7[8:1]/6-2[8:1],,,,,,
4-1[8:1]/5-8[8:1],,,,
{16}
2h[4:1],,,,4,,,,3-7[8:1],3,,,,,,,
7h[4:1],,,,5,,,,6-2[8:1],6,,,,,,,
3qq5[4:1],,,,38,,,,7,7,,46,,,,,
6pp4[4:1],,,,61,,,,2,2,,53,,,,,
3<1[4:1],,3,,7h[8:1],,,,6h[16:1],,,15,,,,,
6>8[4:1],,6,,2h[8:1],,,,3h[16:1],,,84,,,
18,,2>8[4:3]/7<1[4:3],,,,,,,,,,,,,,,,,,,,
,,18,,24,,,57,,,28,,
3,5,3,5,2,6,2,6,1,7,1,7,
{32}1x,2x,3x,4x,5x,6x,7x,8x,
{4}1x/5bxw1[8:1],,1V35[8:1]*V75[8:1],,
{8}4^7[8:1]/2,,1-4[8:1]/4,2,1/7-3[8:1],
8,7/5q7[8:2],4,5/3h[4:1],,,{16}1,1w5[8:1],,,,,,,,,
{8}5^2[8:1]/7,,8-5[8:1]/5,7,8/2-6[8:1],
1,2/4p2[8:2],5,4/6h[4:1],,,{16}8,8-5[8:1],,,,,3,,2,
,7/1-5[8:1],,8,,7-3[8:1]/1,,8,,7/1-5[8:1],,8,,7<3[4:1]/1,,8,,
2,,1,,8-4[8:1]*-3[8:1],,8,,,,,,
{8}6-8[8:1],6,5-1[8:1],5,4-8[8:1],4,3-1[8:1],3,6,6,
{16}7-4[16:1]/8-4[16:1],,,7b/8b,,,,,
{4}4V28[8:1]*V68[8:1],,
{8}1^6[8:1]/3,,4-1[8:1]/1,3,4/6-2[8:1],
5,6/8p6[8:2],1,8/2h[4:1],,,{16}4,4w8[8:1],,,,,,,,,
{8}8^3[8:1]/6,,5-8[8:1]/8,6,5/3-7[8:1],
4,3/1q3[8:2],8,1/7h[4:1],,,{16}5,5-8[8:1],,,,,2,,3,
,6/4-8[8:1],,5,,6-2[8:1]/4,,5,,6/4-8[8:1],,5,,6<2[4:1]/4,,5,,
3,,4,,5-1[8:1]*-2[8:1],,5,,,,,,
{8}7h[8:1],5h[8:1],4h[8:1],2h[8:1],1h[8:1],8h[16:1],7h[8:1],,
45,36,{16}2,7,2,7,2,7,2,7,2,7,2,7,,,,,Cf,,
75,,,64,,,53,,,42,,,31,,
{16}8b-4[16:1],,,2b-5[16:1],,,7b-4[16:1],,,3b-8[16:1],,,6b<5[4:2],,,,,,,,,,,,
8h[16:1],,8h[16:1],,1,7,2,6,
3b-8[16:1],,,6b-1[16:1],,,4b-8[16:1],,,5b-1[16:1],,,
2b-5[16:1],,,7b-4[16:1],,,1b-5[16:1],,,8b-4[16:1],,,
2b>6[4:1],,,7h[16:1],,8h[16:1],,
1b-5[16:1],,,,,,,1bqq4[8:3]*pp6[8:3],,,,,,,,,,
{8},,,,{4}1V35[8:1]*V75[8:1],,
{8}4^7[8:1]/2,,1-4[8:1]/4,2,1/7-3[8:1],
8,7/5q7[8:2],4,5/3h[4:1],,,{16}1,1w5[8:1],,,,,,,,,
{8}5^2[8:1]/7,,8-5[8:1]/5,7,8/2-6[8:1],
1,2/4p2[8:2],5,4/6h[4:1],,,{16}8,8-5[8:1],,,,,3,,2,
,7/1-5[8:1],,8,,7-3[8:1]/1,,8,,7/1-5[8:1],,8,,7<3[4:1]/1,,8,,
2,,1,,8-4[8:1]*-3[8:1],,8,,,,,,
{8}6-8[8:1],6,5-1[8:1],5,4-8[8:1],4,3-1[8:1],3,6,7
,8<1[4:2],,,,,,,,8b/7b,
{16}61,,,36,,,47,,,84,,,25,,
3,,1,,3,,1,3,
,1-5[8:1],
,1,,,1,,
2,,2,,2,,4,2,,2-6[8:1],,2,,,2,,
7,,8,,6,,8,6,,8-4[8:1],,8,,,8,,
7,,7,,7,,5,7,,7-3[8:1],,7,,,7,,
1,,2,,24,,3,35,,4,,46,,,5,,
86,,7,,75,,6,64,,5,,53,,,4,,
13,,2,,24,,3,35,,4,,46,,,5,,
86,,7,,75,,6,64,,5,,53,,,4b/8b,,
