&title=Marigold
&artist=M2U/Nicode/Guriri
&first=0.14
&des_1=La pienture
&des_2=La pienture
&des_3=La pienture
&des_4=La pienture
&des_5=La pienture
&lv_5=14
&des_6=La pienture
&des_7=La pienture
&des=La pienture
&inote_5=(160){4},,,,3h[2:1],
4,5>2[4:1],E7/B6,
7h[2:1],8,1<6[4:1],E3/B2,
{8}4h[8:3],,,7h[2:1],B6/B5,,,2h[8:7],
{1}1qq4[2:1],
{8}4,3,5,4,6,4,5,3,
{2}6h[4:3],2h[4:1],
7/8pp2[4:1],{8}5<8[4:1],,,2,
3h[2:1],,,C,{2}B5h[2:1],
3qq1[2:1],4h[2:1],
2qq5[1:1],7xh[1:1],
{24},,,,,,,,,,A4,D4,{2}A3,
{4},,,,3b/7b<5[8:1],
8/7-3[8:1],{16}3,2,1,8,7,6,5,4,
{4}7/3<5[8:1],1/3-7[8:1],{16}7,8,1,2,3,4,5,6,
7/3,,,2,{4}1-5[8:1]/2-6[8:1],1b>4[8:1]/2<7[8:1],1/2b,
{16}6<8[8:1],,,4,{4}6-2[8:1],{16}6/2,1,8,7,6,5,4,3,
6/2>4[8:1],,,8,{4}2-6[8:1],{16}2/6,7,8,1,2,3,4,5,
2/6<1[8:1],,,5,{4}6,{32}4/8-4[8:1],3,{16}2,,,{4}1/8,
{16}7/3v8[8:1],,,4,{4}3,{32}5,6,7,8,1,2,3,4,{4}5/1-5-1qq8[4:7]*-5-1pp2[4:7],
{1}Cf,
{2},,1h[8:3]/7h[4:1],
6h[8:3]/2h[4:1],
3h[8:3]/5h[4:1],{8}5,4,6,B7/E8/B3/E4/Ch[8:5],
,,,,,,,,{1}7p4[4:3],
2q5[4:3],
{2}7h[8:3],6h[4:1]/5h[2:1],
8qq3[4:3],{24}E5,A4,,,,,,,,,,,{1}2q5[4:3],
7p4[4:3],
{4}D3/E2/A2h[4:3],3,4,5,
{2}6/1pp6[2:1],{24}E8,A7,,,,,,,,,,,{2}7pp3[2:1],
{24}A4,E5,,,,,,,,,,,{4}5>8[4:1],
8<4[4:1],4>1[4:1],1<6[4:1],
{2}4h[2:1],{4}E6h[4:1]/E5h[8:1]/B5h[8:3],7,
{2}8<3[2:1],{24}E5,B4,,,,,{4}2,
1>4[4:1],4-7[4:1],7>2[4:1],2-5[4:1],
5-8[4:1],8>3[4:1],{16}4,5,6,7,{4}8w4[8:1],
8,{16}3,5,2,6,{2}1bh[2:1],
{16}8b,7x/2,6x/3,5x,4x,3x,2x,1x,{32}8/4b,3,{16}7x/2,6x,5x,4x,3x,2x,1x,
8/3,4/7x,6x,5x,4x,3x,2x,1x,{32}8/4b,3,{16}7x/2,6x,5x,4x,3x,2x,1x,
8/3,7x/4,6x,5x,4x,3x,2x,1x,{32}8/4b,3,{16}7x/2,6x,5x,4x,3x,2x,1x,
{2}4bx>1[8:1]/8xv5[8:1],5<8[8:1]/1bxv4[8:1],
{16}3bx,2x,1x,8x,7x,6x,5x,4x,{32}3/7b,6,{16}2x/5,1x,8x,7x,6x,5x,4x,
3/6,2x/7,1x,8x,7x,6x,5x,4x,{32}3/7b,6,{16}2x/5,1x,8x,7x,6x,5x,4x,
3/7,8x,1x,2x,3x,4x,5x,6x,{32}7/2b,3,{16}8x/4,1x,2x,3x,4x,5x,6x,
7/4,8x/3,1x,2x,3x,4x,5x,6x,{32}7/3b,4,{16}8x/5,1x,2x,3x,4x,5x,6x,
{2}2b/7h[8:3],1h[8:3],
3h[8:3],5w1[8:1],
{8}4h[4:1]/A7f/E7/E8,,,3,7h[4:1]/A3f/E4/E3,,,6,
{2}1bh[2:1]/A5f/E5/E6,{32}8b,7/2,6/3,4/5,,,,,{4}2b/7b,
{16}3,1,4,8,{24}5,6,7,8,1,2,3/5w1[8:1],6,7,8,,,{4}A5f/E6/E5,
{16}2,1,5,6,3<5[8:1],4,2,8,{8}3>8[8:1],{16}6,6,{8}3,{32}7,6,5,4,
{4}3b/A8f/E8/E1,{16}2-6[8:1],4,3,5,{8}2<7[8:1],7,2,6,
{16}8-4[8:1],7,1,6,{8}8b<5[8:1],{16}5,5,{8}8b>3[8:1],4,8,{32}5,6,7,8,
{2}1bh[8:3]/A4f/E5h[8:1]/E4h[4:1]/B4h[8:3],{16}2b/6,7x,8x/3,4x,5x/1,2x,3x/7,8x,
{8}1x/5b,{16}2,2,{8}8-3[8:1],{16}7,1,{8}8<5[8:1],{16}2x,2x,{8}8,{32}4,3,2,1,
{8}8,{16}6,6,{8}4-7[8:1],{16}3,5,{8}4>1[8:1],2,4,{32}7,6,5,4,
{8}3b/A8f/E8/E1,5,A4f/E4/E5,2,A5f/E6/E5,8,{4}7/1h[4:1],
{16}7bx,8,6,2,{24}4,3,2,1,8,7,6/4w8b[8:1],3,2,1,,,{4}A4f/E4/E5,
{16}7,8,4,3,6>4b[8:1],5,7,1,{8}6b<1b[8:1],{16}3,3,{8}6b,{32}2,3,4,5,
{4}6b/A1f/E2/E1,{16}7-4b[8:1],4,5,3,{8}7>2b[8:1],{16}1,1,{8}7,3,
{12}6,5,7,3-8b[8:1],4,2,{8}3<6b[8:1],5,{32},,,,7x,8x,1x,2x,
{8}3bxh[4:1]/A6f/E7h[8:1]/B6h[4:1],,,4b/8b,{16}2w6b[8:1],1,{8}3,{4}2,
{8}8h[4:1]/A4f/E4h[8:1]/B4h[4:1],,,2/6,{16}7w3b[8:1],8,{8}6,{4}7,
{8}5h[4:1]/A1f/E1h[8:1]/B1h[4:1],,,7/3,{16}4w8b[8:1],5,{8}3,{4}4,
{8}2/6,3/7,4/8,1h[4:1]/5h[4:1],{24},,,,4/8,3/7,{4}6/2>2b[1:1],
{1}Cf,
{4},4h[2:1],3,2pp4[2:1],
5,6<2[2:1],,E4h[4:1],
{16}E5,E6,E7,E8,{4}1x-5[4:1],2,3-8[4:1],
4qq7[4:3],A4f,,,{1}1s5b[4:3],
{4}6h[4:1],7h[4:1],8h[4:1],1,
{2}7/3qq5b[4:3],{24}B1,B2,,,,,,,,,,,{2}6pp4b[4:3],
{24}B8,B7,,,,,,,,,,,{8}3h[2:1],
,,2,2h[2:1],,,1,
1h[2:1],,,8,{4}7-3b[8:1],E2/E3/B2h[4:1],
{2}4qq6b[4:3],{24}B2,B3,,,,,,,,,,,{2}1pp7b[4:3],
{24}B3,B2,,,,,,,,,,,{4}6h[8:1],
5h[8:1]/7h,4h[8:1]/8h,1w5b[8:1],
1,7/3,{2}8bh[2:1],
{8}1>1b[8:7],,,4,B4,,,1>7b[1:1],
B1,,,4,B4,,,8,
{2}8h[2:1],{8}6h[2:1],,,5,
{2}5bh[4:3],{4}E4,C,
{8}8<8b[8:7],,,5,B5,,,8<2b[8:7],
B8,,,4,{2}B4,
{8}1h[2:1],,,E4,E5h[8:3],,,6,
7h[2:1],,,E1,{2}Ch[2:1],
5<8[2:1],E7/B6,
4>1[2:1],{8}B3/B4,,,E8,
E7h[2:1],,,E5,E4h[2:1],,,1,
1h[1:1],,,4,{2}5>7pp1[4:9]*>7qq6[4:9],
E
