&title=Phantom Crisis
&artist=t+pazolite,Yuta Imai
&first=0
&des=碧翠丝
&lv_5=13+
&des_5=碧翠丝
&inote_5=
(235){4},{8},,,,,,1/C,
2,3,4,,8,,1h[8:1],
{16}C,,,,,,,,,,,,{4}1,
{8}8/C,7,6,5,,1,,8h[8:1],
{1}C,
{4}4h[4:1],5,6/3,{8}7,2-6[8:1],
,2,{4}7-3[8:1],7,1,
{8}E2h[8:7],E8,E7,E6,,E5,,C,
{1}E1,
{8}4,5,3,6/2,,7V15[4:3],,7,
,,,,,,{4}3,
{8}1,8,2,7/3,,2V84b[8:5],,2,
,,,,{2}D7,
{8}1,8,2,7,,1-6[4:1]*-4b[4:1],,1,
,,,,,,{4}1,
{8}1,8,2,7,,1,{48},,,,,,1b,A1,B1,Cfh[48:1],B5,A5,
,,,,,,{8}7,6,5,4,3,2,1,
{4}8-4[8:1],2-5[8:1],{2}7-3[8:1],
{8}B1,E3,{4}B4,8,8bxh[4:5],
{24}2,3,{12}4,{24},,{8}1,1,{24},,,1b,2,3,,,,2b,3,4,
,,,,,,8b/1,2,{6}3,{24}8b/2,3,{12}4,{24},,8b/3,4,{6}5h[24:25],
{8}B8,B2,B6,B4,B8,B2,B6,B4,
5x,5x,5x,5x,{4}8,3bxh[4:5],
{24}7,6,{12}5,{24},,{8}8,8,{24},,,8b,7,6,,,,7b,6,5,
,,,,,,8/1b,7,{6}6,{24}7/1b,6,{12}5,{24},,6/1b,5,{6}4,
{24}1x,2,{12}3,{24},,{8}5,5,{24}1x,8,{12}7,{24},,{8}5,5,
{24}1x,2,{12}3,{24},,1x,2/8,{6}3/7,{24}8x/2x,7/3,{12}6/4,{24},,7x/3x,6/4,{6}5,
{24}8x,7,{12}6,{24},,{8}4,4,{24}8x,1,{12}2,{24},,{8}4,4,
{24}8x,7,{12}6,{24},,8x,7/1,{6}6/2,{24}1x/7x,2/6,{12}3/5,{24},,2x/6x,3/5,{6}4,
{4}1-4[8:1],{8}1,8,,7/3b,,2/6b,
,,{4}5/2>4[8:1],2-6[8:1],2,
{8}7/1x,6,2/8x,3,{16}6/2x,3,4,3,{8}4,7/2,
{4}1-3[8:1],1-7[8:1],{2}1-5[8:1],
{4}6,6/5,6/4,6/3,
6/2,6/1-5[4:1],5,{12}6,7,8,
{4}1,1/2,8/2,7/1,
1/6,1/5,{8}2b,2b,3b,3b,
3/5,2,6,2,7,2,8,2,
{16}2b,1,2,1,2b,1,2,1,3b,8,3,8,4b,7,4,7,
{32}5x,6x,5x,6x,5x,6x,5x,6x,5x,6x,5x,6x,5x,6x,5x,6x,5x,6x,5x,6x,5x,6x,5x,6x,5x,6x,5x,6x,5x,6x,5x,6x,
{1}5xw1[2:1],
{4}8b-4b[1:1],1,1,1,
1,1,{32}1b,2,3,4,5,6,7,8,1bx,2,3,4,5,6,7,8,
{4}1>4[4:1],7,8<5[4:1],{12}4,3,2,
{4}1,6,1/5,{12}6/2,7/3,8/4,
{4}5/1-3b[8:1],1b/3,8-4b[8:1],8/4,
7-5b[8:1]/3-1b[8:1],7/3,8-4b[8:1]/4-8b[8:1],{16}4/8,C,,,{4}5h[6:1]/1h[6:1],
{12}8/4,7/3,6/2,{4}5/1,{12}8/2,7/3,6/4,
{4}5<2[2:1],{8}A3/B3/E3,A4,A5f/B5/E5,A6,A7/B7/E7,A8,
{4}1-7[8:1],1,1-3[8:1],1,
1/5,{24}1/5,8,{6}7,1/5,{48},,,,{16}1/5,2,3,4,
{4}5/7-3[8:1],3/7,2/8-2[8:1],{12}2/8,3,4,
{4}5,6-2b[8:1],{2}6b/8b,
7bh[2:1]/C,6bh[2:1]/C,
{4}5bh[1:1]/C,{12},,,,,,2,1,8,
{2}7h[2:1],5h[4:1],
{1}7-1-6[2:1]/3-5-2[2:1],
{8}4b,5,4,5,4,5,4,5,
4b,5,4,5,4,5,4,5,
4b,5,4,5,4,5,4,5,
(215)2b,4,3,5,4,6,5,7,
(195)1b/8b,7/2,3/6,4/5,4b/5b,3/6,2/7,1/8,
(175)2b/6,3,7/3,6,6/2b,4,7/3,5,
2b/1b,2/1,8/3,8/3,4b/7b,7/4,6/5,6/5,
(160){16}6b/5,7,8,1,7b,8,1,2,8b,1,2,3,1b,2,3,4,
{4}5/1bV35[4:1],5-7-1[4:1],1-3-5[4:1],5,
1-3b[4:1],3-7b[4:1],7-4b[4:1],4,
B7fh[4:7]/E7fh[4:7]/B6fh[4:7],B1h[2:1],{2}B2h[8:3],
{16},,B1,B2,{8}B3,{16}B1,B2,{4}B3,E3f,
1-5[8:1],1/7-4[8:1],7/3-8[8:1],3/6-2[8:1],
{8}6/1-4[8:1],8,{4}1/5-8[8:1],{16}5/4,3,{8}2,1,8,
{4}5/7v4b[8:1],{16}7,6,,3,{8}5,{16}2,7,,1,{8}8,
{4}1b-5b[8:1],2b-6b[8:1],3b-7b[8:1],8b,
{8}8-4[8:1],1,{4}8/2-5[8:1],2/6-1[8:1],{8}6/3-7[8:1],2,
{16}3/8-5[8:1],1,{8}2,{4}8/4-1[8:1],4/5,{8}8,8,
{24}1,8,1,8,1,8,1,8,1,8,1,8,{2}1bw5b[8:1],
3h[2:1],Ch[2:1],
{4}3b-7-5[4:1],3/8-2[8:1],8,(180){8}4/1,8,
{4}7v4b[8:1]/2-7b[8:1],2/7,{8}3/5,3/5,{16}1,8,{8}1,
{4}2b/6b-2-4[4:1],6/1-7[8:1],1,(200)5/8,
2v5b[8:1]/7-2b[8:1],7/2,{24}1b/4b,8b/3b,{12}7b/2b,{48},,,,{16}1,8,1,8,
{12}3b,4,2,6,5,7,2,4,3,7,5,6,
(210)3b,4,3,6,5,6,2,3,2,7,6,7,
(220)2b,1,3,7,8,6,2b,1,2,7,8,7,
(235){16}1b,8,1,7,1b,6,1,5,{24}1b,2,3,5,6,7,1b,2,3,5,6,7,
{1}1b-6[4:5],
{4},,,1,
{8}1,8,2,7,,1,{32},,,,1,2/8,3/7,4/6,
{1}5bh[2:1],
{4}1b-4[8:1],1-5[8:1]/6<8[8:1],6-3[8:1],6-8[8:1]/2-8[8:1],
6b/2-4[8:1],2b/1-5[8:1],1b/8-6[8:1],{8}8/1,1,
{4}1/8b-5[8:1],8-4[8:1]/3>1[8:1],3-6[8:1],3-1[8:1]/7-1[8:1],
3b/7-5[8:1],7b/8-4[8:1],8b/1-3[8:1],{8}1/8,8,
{4}8b-6[8:1]*-5[8:1],8,8-2[8:1]*-3[8:1],8,
5-8-4-1[2:1],4,1-5[8:1],5,
{8}1,8,2,7,,1-5b[8:1],,1,
{24}8,7,6,4,3,2,7,6,5,3,2,1,{8}7,8/7,,,{4}8-5[8:1]/1-4[8:1],
8/1-6[8:1],1/8-3b[8:1],8/1<4[1:1],
{24}1,2,{12}3,{24},,1,2,{6}3,{24}2,3,{12}4,{24},,{8}2-7b[8:1],2,
{4}2,8,1b/5b,2b/6b,
8bh[8:1]/1bh[8:1],{16}2,4,8,7,{6}1,7/2,6/3,
{8}4/5-1[8:1],6,5/3-8[8:1],4,3/7-2[8:1],6,7/1-5[8:1],8,
1/6-3b[8:1],7,6/2-7b[8:1],1,{4}2,5bh[4:1],
{8}4,3/6,2/7,8/1,,8<5s1[8:7]/1>4z8b[8:7],,1b/8b,
,,,,,,,,{2}8<4z8[4:5],
2,
{4}3,2,{2}2,
{1}2h[2:1]/1b<4b[4:5],
{4}2,1,{2}8b,
{4}2b<7-3<6[2:1],2,6,8,
{8}8b,8,{4}8,{8}E1,{16}B8,B7,{8}E7,A6,
{4}B1fh[4:7]/E2fh[4:7]/B2fh[4:7],,,8-4b[8:1],
{1}8,
{4}5-8[8:1],5,4-1[8:1],4,
8<3b[4:3],B1/E2/B2,B1/E2/B2,B1/E2/B2,
1-4[8:1],1,8-5[8:1],8,
1>6b[4:3],7,7,7,
7-2[4:1],2-5[4:1],5-8[4:1],8>4b[4:1],
4<8b[4:1],8w4b[4:1],,,7b/2b,
{8}2/1,2,3/8,8,7/4,4,
6/5,5,7b,{16}7,5,{8}6,6h[8:1],2b,{16}2,4,
{8}3,3h[8:1],{16}7,4,6,5,,5h[8:1],,2,5,3,{8}4,
{16}1,8,1,6h[8:1],,,,,1,8,2,1,{48},,,,,,{24}2b,1,8,
{4}7,{12}2-5[8:1],,1,{4}2,{12}3-8[8:1],,4,
{4}3,{12}1,8,{48},{16}6xh[16:1]/2xh[16:1],,6/2,{48},,,,,,{12}8,1,{48},{16}3xh[16:1]/7xh[16:1],
,3/7,,2,3,4h[8:1],,6,7,8h[8:1],,3,4,5h[8:1],{48},,,,,,{24}1,
2,3,4,5,6,7,8,1,2,3,4-1[6:1],{4}5b-8b[8:1],{32}5,Cfh[32:1],,,,,,,{16}2,
7,2,7,3,6,3,6,4,5,3,6,4,5,3,6,
2,7,1,8,2,7,1,8,1,8,1,8,2,7,3,6,
4,5,2,7,4,5,2,7,4,5,3,6,1,8,3,6,
1,8,1,8,{24}1bx,2x,3x,1bx/4x,8x,7x,1bx/6x,2x,3x,1bx/4x,8x,7x,1bx/6x,2x,3x,1bx/4x,8x,7x,
{2}6x/3xh[4:1],6h[4:1],
{8}3b/6b,{16}2,8,{8}2,2,6b/3b,{16}1,7,{8}1,1,
{12}2,7,3,6,4,5,{16}3,2,1,8,2/7,1,8,7,
{1}6h[8:7]/2h[8:7],
{32}3b/7b,4b/8b,{16}5b/1b,
E
