&title=時を刻む唄
&artist=Lia
&first=-0.07
&des=9V_Y2-6
&lv_5=13
&inote_5=(140){2},,,,
{8}8qq8[1:1],,4h[8:1],,,3h[8:1],,,2h[8:1],,,1,1,,28,,3qq3[1:1],,5h[8:1],,,6h[8:1],,,7h[8:1],,,8,8,,17,,6/5>2[2:1],,6,6,,7,7,,8,8-5[8:1],,5,4h[4:1],,6,,7h[8:4]/3h[8:5],,,,,,7qq4[8:9],3qq8[8:8],,,,,,,,,,,,
(139.1)15,2,3,4,6/5h[4:1],,8,7,6,5,3>1[8:1]/4,,8,,6<8[8:1],,1,,2h[4:1],,4,5,6h[8:1],3,4,5h[8:1],8,5,7,4,6h[4:1],,1,2,35,6,5/7-5[8:1],,4-8[8:1],,6pp4[2:1],,4,,3,,2qq2[4:1],2,6h[4:1],,,,6,7,4/8<5[4:1],,5>2[4:1],,2,,1h[4:1],,,,4,5,2/6<1[4:1],,1>4[4:1],,4<7[4:1],,1,1h[4:1],,,2,3,4/8<5[4:1],,5q1[4:1],,1q5[4:1],,2h[4:1],,,,2,2,6<1[4:1],,1p5[4:1],,5p1[4:1],,2>5[8:1],,,,8,7-2[1:1]/5qq2[1:1],,,,,,,,,,,
(139)13,,48,,5/7<4[8:1],,2,1-4[8:1],,4,55h[4:1],,3,3,6,6,
{16}2,1,2,,83,,7,,5/7<4[8:1],,,,2,,1-4[8:1],,,,4,,5,,6,,7,,7,,4,,4,,6,5,6,,47,,3,,4/2>5[8:1],,,,7,,8-5[8:1],,,,5,,4h[4:1],,,,6,,6,,3,,3,,7,8,7,,2,1,2,,3/8<5[8:1],,,,,,2>5[8:1],,,,,,1z5[4:1],,,,4h[4:1],,,,,,,,3,4,3,,2b/5b,,,,
4b/7b,,6,5,6-4[8:1],,6,,2-6[8:1],,2,,6,,7,,8<5[8:1],,47,,8,,3,,2,1,8,7,6,,8,,5b/7b,,3,4,3-5[8:1],,3,,7-3[8:1],,7,,3,,2,,1>4[8:1],,25,,1,,6,,7,8,1,2,3,,1,,2b/4b,,6,5,6-4[8:1],,6,,2-6[8:1],,2,,6,,7,,8<5[8:1],,47,,8,,3,,2,1,8,,6,5,4,,2h[8:3],,,,,,6-2[2:1],,,,,,6h[4:1],,,,,,,,6,,,,7,,5,,4,,2,,
{8}8h[2:1],,,,,6h[2:1],,,,,4h[2:1],,,,,2qq2[2:1],,,,,5h[2:1],,,,,3h[2:1],,,,,1h[2:1],,,,,7>5[2:1],,,,,,6,7,8h[4:1],1,2,7,8,1h[4:1],2,3,8,1,2h[4:1],3,4,1,2,3h[4:1],4,5,2,3,4h[4:1],5,6,3,4,5h[4:1],6,7,4,5,6,7,8,4pp4[4:5]*qq4[4:5],,,,
