&title=Fragrance
&artist=Tsukasa
&first=-0.12
&des=Ink.
&des_5=Ink.
&lv_5=14
&inote_5=(180){4},,{2}1x>8[4:13],
{1},,{4},,{8},E7,
E6,E5,
E4,E3,,,{2}5x<4[4:11],
{1},,{4},,{8},E4,
E8,E2,
E6,E3,E7,C,8,7,4/6,{16}2,4,
,4,{8}2,5/3,6,7,6,5/4,{16}3,4,
,4,{8}3,1,5/3,1,2,3/5,{16}7,5,
,5,{8}7,4,3,2/1,3,5/4,{16}6,5,
,5,{8}6,7,5/3,7<5[8:1],8,7,{16}2,4,
2V48[4:1],4,{8}2,5,6,7-5[8:1],1,7,{16}3,4,
3,4,{8}3,1/7,5/3,2>4[8:1],1,2,{16}7,5,
7V51[4:1],5,{8}7,4,3,2-4[8:1],8,2,{16}6,5,
6,5,{8}6,{16}5,4,3,2,{8}1/5b<8[8:1],2>5[8:1],5,2<6[8:1],
,2>5[8:1],,2,,8<5[8:1],6,8,
1>4[8:1],4,{16}5,6,7,8,{8}1/5x>2[8:1],8<5[8:1],5,8>4[8:1],
,8<5[8:1],,8,,1>4[8:1],3,1,
8<5[8:1],5,{16}4,3,2,1,{8}8/4x<7[8:1],1>4[8:1],4,1<5[8:1],
,1>4[8:1],,1,,8<5[8:1],6,8,
1>4[8:1],4,{16}5,6,7,8,{8}1/5x>2[8:1],8<5[8:1],5,8>4[8:1],
,8<5[8:1],,8,,1>4[8:1],3,1,
8<5[8:1],5,{16}4,3,2,1,{8}8/4x-7[8:1],1-5[8:1],4,1-7[8:1]*-6[8:1],
,1-4[8:1],,1,,8-5[8:1],6,8,
1-4[8:1],3,{16}5,6,7,8,{8}1/5x-2[8:1],8-4[8:1],5,8-2[8:1]*-3[8:1],
,8-5[8:1],,8,,1-4[8:1],3,1,
8-5[8:1],6,{16}5,4,3,2,{8}1/4x<7[8:1],8>3[8:1],4,8-6>4[8:1]*<7-4[8:1],
,8>3[8:1],,8,,7-4[8:1],3,7,
1-4[8:1],3,{16}4,5,6,7,{8}8/5x>2[8:1],1<6[8:1],5,1>2-5[8:1]*-3<5[8:1],
,1<6[8:1],,1,,2-5[8:1],6,2,
8-5[8:1],6,{16}4,3,2,1,{8}8/4x,1/5,6/2,8/4V28[4:1],
,8V64[4:1],,4p8[4:1],,8q4[4:1],,4>8[8:3],
,E8/A7/E7/B7,{4}B5/E6/A5/E5,{8}6,6,5,5V71[4:1],
,1V35[4:1],,5q1[4:1],,1p5[4:1],,5<1[8:3],
,A2/E2/B2/E3,{4}B4/E5/A4/E4,{8}3,3,4,4V28[4:1],
,8-4-6[4:1],,6V82[4:1],,2V46[4:1],,6-4-1[4:1],
,A7h[8:1]/E8h[8:1]/B7h[8:1],,,6,6,5,5V71[4:1],
,1-5-3[4:1],,3V17[4:1],,7V53[4:1],,3-5-8[4:1],
,A2h[8:1]/E2h[8:1]/B2h[8:1],,,3,2,1/7,{16}6-1[8:1],4,
6x,4,{8}6,2x,{16}3-8[8:1],5,3x,5,{8}3,7,{16}6x,5,
6>3[8:1],5,{8}7V58-4[8:3],6x,7x,,3x,2x,1,
8/4x,5,6/2x,4/8xqq5[2:1],,5,4,3,
2,1,{16}8,1,2,3,{8}4/6,5,4,{16}3>8[8:1],4,
3x,4,{8}3,7x,{16}6<1[8:1],5,6x,5,{8}6,2,{16}3x,4,
3<6[8:1],4,{8}2V41-5[8:3],3x,2x,,6,7,8,
1/5,4,3x/7x,5x/1xpp4[2:1],,4,5,6,
7,8,{16}1,8,7,6,5,4,5,4,{8}5,{16}6/3,6/3,
{4}5/4,4b,{8}3,2,1/7,{16}3,4,
3,4,{8}3,5/2,{16}6,5,6,5,{8}6,7/4,{16}2,1,
2,1,{8}2,3v8[8:1],8>5[8:3],,5,6,7,
8,1,{16}5,4,3,2,8,1,7,2,8<3[16:5],7<3[4:1],6>3[16:3],5>3[8:1],
A8,A7,A6,A5,8,7,6,5,1,8,2,7,1>6[16:5],2>6[4:1],3<6[16:3],4<6[8:1],
A1,A2,A3,A4,1,2,3,4,7,8,6,1,5,2,4,3,
1,2,8,3,7,4,6,5,8,7,6,5,8<3[16:5],7<2[16:5],6>1[16:5],5>8[16:5],
A8,A7,A6,A5,A4,A3,A2,A1,{2}4xw8[8:33],
E
