&title=glory day (Mintorment Remix)
&artist=Mintorment
&first=0.04
&des_5=ナツナツフユフユ
&lv_5=14
&des=ナツナツフユフユ
&inote_5=(170)
{1},,{8},
{32}2,1,8-6v8[8:11]*-4-2-8[8:11],,
{1},{2},{8},,,
{4}7,6,5,4h[4:3],,,
{4}5h[2:1],,
{6}B4,B3,B6,B5,,,
{8}3,,,5,,,,,4x,5x-8z4[8:11]*-8z4[8:11],,
{1},{2},{8},
{1}35,{2}5,{8}4,,3,2,
{8}1>4[4:1],5,6,6h[8:5],,,
{8}7,,5,4,,,46,,35,,
{8}24,3,5,4,6,,5h[2:1]/7h[2:1],,,,,,E7,,B1,,
{8}6,5,4,3,2h[2:1],,,,
{4}8,8h[4:1],1,1h[4:1],
{8}7,,4,6,35,,35,,4,6,5,7,1x,8x,1x,,
{8}8<5[4:1],4,3,3h[8:5],,,
{8}2,,4,5,,3h[8:1]/5h[8:1],,4h[8:1]/6h[8:1],,,
{8}57,6,24,3,5h[8:1],,5h[8:1],4,,4,6,5,7h[8:1]/8h[8:1],,1h[8:1]/7h[8:1],,
{8}3,4,5,6,7h[4:1],,
{8}1-5[8:1],1,8-6[8:1],8,,5,,5,6,4,
{8}35,,6,4,57,,57,,4,6,3,5,2x,1x/8x,1x/8x,,
{8}E7,B4,B8,E2,C,,,,
{1}1v4[2:1],
{8}E3,B8,B4,E6,C,,,
{8}5v8[2:1],,,3,,,1,1,,
{4}57,46,3v8[8:1]b/5-3[8:1],35,
{4}24,35,4-6[8:1]/6v1[8:1]b,46,
{8}57,8,24,1,{16}6,3,6,3,7,2,7,2,
{8}1s5[4:1]/8z4[4:1],,,,,
{8}8bx,1bx,,
{8}7bqq4[2:1],E4,E3,E2h[1:1],,,,,
{8}4,5,6,7<4[4:1],,,,,
{8}1,3,2,4h[8:3],,,5,5s1[2:1],,,,,,,,,
{8}2pp5[2:1],E6,E7,E8h[1:1],,,,,
{8}5,4,3,2>5[4:1],,,,
{8}7h[4:1],,,{16}5,6,5,6,4,7,4,7,3,8,3,8,2,4,3,4,3,5,2,5,2,6,1,6,1-5[8:1]b,,,,
{8}7b/1b,,,4h[4:1]/6,,7,8-4[8:1],,
{8}2b/8b,,,3/5h[4:1],,2,1,,
{8}38,4,5,6>4[8:1]/1,,6,3,,
{8}16,5,4,3<5[8:1]/8,,3,6,,
{8}5-1[8:1]/7,7,57,7,5-3[8:1]b/7,7,57,7,
{8}2/4-8[8:1],2,24,2,2/4-6[8:1]b,2,24,2,
{16}7,5,7,5,6,4,6,4,5,3,5,3,4,2,4,,
{8}1h[8:1]/3h[8:1],,4h[8:1]/7h[8:1],,58,58,
{16}1b/6b,5,4,3,2-7[8:1]/7-3[8:1],,,,2>8[4:1]/7,,,,1,,2,,3-5[8:1],,,,
{16}3,,7,7,6,,18,,2,,3,4,3,,4,,
{16}5,6,7,1,1,,2h[8:1]/8h[8:1],,,,3h[8:1],,4h[8:1],,5h[8:1],,
{16}6,5,6,1,5,4,5,1,1/7-3[8:1],6,5-8[8:1],,
{16}7,,5,,4,,2,1,2,,8>4[4:1],,,,68,,6h[8:1],,,,
{8}5-2[8:1],5,7-4[8:1],7,1,1,8,8,
{16}2,3,4,,C,,7,6,5,,C,,1,2,3,,
{8}7<4[8:1],7,3,2,1,8,
{16}8b/3b,4,5,6,7-2[8:1]/2-6[8:1],,,,7<1[4:1]/2,,,,8,,7,,6-4[8:1],,,,
{16}6,,2,2,3,,81,,7,,6,5,6,,5,,
{16}4,3,2,8,8,,7h[8:1]/1h[8:1],,,,6h[8:1],,5h[8:1],,4h[8:1],,
{16}3,4,3,8,4,5,4,8,2-6[8:1]/8,3,4-1[8:1],,
{16}2,,4,,5,,7,8,7,,1<5[4:1],,,,31,,3h[8:1],,,,
{8}4-7[8:1],4,2-5[8:1],2,8,8,1,1,
{16}25,,3,4,3,,5,,3,4,3,,6,5,6,,
{8}34,2,56,7,34,1,56,8,
{8}3v8[8:1]/5,2,3/5-1[8:1]b,6,2-6[8:1]/5,3,28,,
{16}78,,4,5,3,6,2-4[8:1]*-5[8:1],7,18,,2,,,,
{16}7,8,7,,2,1,2,,8,1,8,,,7,,,6,,
{16}2,4,2,4,3,5,3,5,4,6,4,6,8,7,8,,
{4}1-5[8:1]/6-8[8:1],16,3-1[8:1]/8-4[8:1],38,
{8}15,37,{16}5,6,7,8,{8}1-5[8:1],1,2-4[8:1],2,
{8}5<8[8:1],6,4>1[8:1],3,{16}7,,,8,2,,56,,
{16}4,7,4,7,3,8,3,8,2,5,2,5,1,6,1,6,
{16}8-2[8:1]b,4,4,,8-3[8:1],6,6,,8-4[8:1]b,5,5,,8,7,7,,
{16}12,,3,4,3,,6,5,6,,4,7,3,8,2,1,
{16}1-7[8:1]b,5,5,,1-6[8:1],3,3,,1-5[8:1]b,4,4,,1,2,2,,
{16}87,,6,5,6,,3,4,3,,5,2,6,1,7,8,7h[4:1],,,1,1,,26,,3h[2:1]/5h[2:1],,,,,,,,,,
{8}3b/5b,2b/6b,{16}8,5,6,,1,4,3,,25,,
{8}68,7,13,2,57,6,24,3,{24}6,7,8,1,2,3,4,5,6,7,8,1,2,3,4,5,6,7,8w4[8:1]b,,,,,,
{1}8b>7[1:3]*<1[1:3],,,,
{1}4h[4:3],5h[4:3],
{4}3,4,6,5,
{8}B3,B4,B5,B6,,,,,
{1}3h[1:1],6h[1:1],
{8}2,8,1,7,5,6<6[1:1],,C,,,,,,,,,
{8}1,,1,7h[4:1],,,,,8,,8,2h[4:1],,,,,
{4}7,6,3,4,
{8}E6,E5,B6,B4,,,,,
{8}2h[4:1],,,4,,3,3,,
{2}5,25,1-4[4:15]/4-7[4:15],,,,,,,,
E
