&title=NO BATIDÃO
&artist=ZxKAI&SLXUGHTER
&first=0
&lv_5=13
&des_5=Alonso Kaminski
&inote_5=
(130){4},6/2,{8}3,4,{4}5-7[8:1],
{8}3/5,4,2-4[8:1],4,{4}2/5,{8}6,4,
2/C,8,{4}6,{8}4,4,{16}3-8[8:1],,,5,
{8}3,5,{4}6-3[8:1],6/3,{16}4,5,3,5,
4,6,{8}4,{4}2/7,{8}5/1-5[8:1],4/2,{4}5/1b,
{8}6/2-6[8:1],5/3,{4}6/2b,4,{8}5,4,
3/C,2,{4}1h[8:1],{8}7v4[8:1],5,7,2,
7-3[8:1],4,{4}7,6/3,{8}6-2[8:1],6,
7-3[8:1],7,{4}8-4b[8:1],{32}8b,B8,C,B4,{8}A4,{16}5b/1-7[16:1],,,4,
{8}1-3[16:1],6,{4}5/1-7<6[16:1],{8}1-3<4[16:1],4,{4}5/1-7[16:1],
{8}6/1-5[16:1],5,{4}1b/6,{8}4/8<6[16:1],5x/2x,8-3[16:1],3,
8-5[16:1],4,8>3[16:1],3,8-6[16:1],5,8b-2[16:1],4,
8bq4[16:1]*p4[16:1],4,{4}8b,6bx/2bx,{16}1b<6[16:1],,,5,
{8}1>4[16:1],5,{4}1-5[16:1],{8}1-7[16:1],4,{4}5/1b-3[16:1],
{8}5/1-6[16:1],5,{4}1b/5,{8}2-5[16:1],8/1,2/7-4[16:1],1,
7/2-5[16:1],8,2/7-4[16:1],1,7/2-4[16:1],8,{4}7x-3[16:1]/2bxv5[16:1],
2x-8<7[16:1]/7bx<6-4[16:1],2bx/7x,6b/2b,{16}5h[4:3]/B7,,,B2,
,,{8}B8,,B1,{4}C,{16}4h[4:3]/E8,,,B2,
,,{8}B6,,E2,{4}B6,{16}3h[4:3]/B8,,,B7,
,,{8}B1,,A6h[8:1],{16},,,,2h[4:3]/E5,,,B7,
,,{8}A6,,E8h[8:1],,,{4}6/4,
1/E7,7/5,5/4-2[16:1],7/4,
7-5[16:1],7/4,1-6[16:1],1/4,
{8}2-5[16:1],4,{4}6/2,8-2[16:1],8/7-3[16:1],
7/6-4[16:1],6,Cfh[8:1],{16}5/1-7[16:1],,,5,
{8}1-3[16:1],4,{4}1/5,{8}4/8-4[16:1],6,{4}8/4b,
{8}6/2-6[16:1],5/3,{4}6b/2,{8}1/8<5[16:1],2/7,8/1>4[16:1],2,
1/8<5[16:1],7,8/1-4[16:1],2,1/8-5[16:1],7,8/1-5[16:1],2,
1/8-4[16:1],7,{4}8-6[16:1]/1-3[16:1],8b/1b,{16}2b-8[16:1],,,5,
{8}2-4[16:1],6,{4}2-8[16:1],{8}2h,5,{64}E3/2b-8[16:1],B3,B4,E5,{16}A5,,,{8}6/2h,
5,{64}2b/E3,B3,B4,E5,{16}A5,,,{8}8-4[16:1],7,2-6[16:1],3,
7-4[16:1],8,1-4[16:1],2,5-7[16:1],6,{4}2-4[16:1],
8-5[16:1]/2-6[16:1],8b/2b,{16},,,,5bh[4:3],,,3x,
,,{8}4,,B6,{4}B7,{16}4bh[4:3],,,6x,
,,{8}5,,B3,B2,C,{16}5bh[4:3],,,2x,
,,{8}3,,C,{4}B6,5h[8:3]/4bh[8:3],
{24},,,B5/B4,B6/B3,B7/B2,{4}B8/B1,7b/3b,6/B2,
7/B3,8/B4,1/B5,{8}2/B6,2,
3/B7,3,{4}4/B8,{8}5-3[16:1],7,{4}5,
6-2[16:1],6/4,Ch[8:1],1-6[16:1],
1/2-5[16:1],{8}2/8,Ch[4:1],,,{4}5b<1[4:1],
1>5[4:1],5V71[4:1],1q5[4:1],3x,
3-8[4:1],8-5[4:1],{8}5-3[8:1],2b,{4}1-6[4:1],
6-2[4:1],2-5[4:1],7h[8:1],{8}6,6h[8:1],
,5x,{4}3h[8:1]/6h[8:1],{8}7x,5b/2b,{16}8-2[16:1],,,4,
{8}8-6[16:1],5,{4}8-4b[16:1],4/8b,{16}1-7[16:1],,,4,
{8}1-3[16:1],5,{4}1-7[16:1],B5h[16:1]/1-3[16:1],{16}5x/1-6[16:1],,,4,
{8}1h,5,{64}E2/1-7[16:1],B2,B3,E4,{16}A4,,,{8}1v4[16:1],5b,{16}1v6[16:1],,,5b,
{8}1-3[16:1]*-4b[16:1],5b,{4}1-7[16:1]*-6b[16:1],{2}1b,
E
