&title=Radical Jinja
&artist=Kobaryo
&first=0
&des=小菟遊さん
&lv_5=14+
&inote_5=(125)
{1},,
{4}2hb[4:3]/6b,{8},4h[8:3],,,,,
{4}7h[4:3]/3,{8},5h[8:3],,,,,
{4}2h[2:1]/6p4[2:1],,,1pp4[2:1],
{4}8,7,6,5,
{4}7h[4:3]/3,{8},5h[8:3],,,,,
{4}2h[4:3]/6,{8},4h[8:3],,,,,
{4}7h[2:1]/3q5[2:1],,,8qq5[2:1]*pp3[2:1],
{4},,,2/6,
{4}2h[4:1]/8<3[2:1],,E2/B1/B2,1,
{8}2/8<3[2:1],2/8h[4:1],,,E8/B8/B7,,8,,
{4}2h[4:1]/8p4[2:1],,E2/B1/B2,1,
{8}8pp2[2:1]/1,8h[4:1]/1,,,E8/B8/B7,,8,,
{4}7h[4:1]/1>6[2:1],,E8/B8/B7,8,
{8}7/1q5[2:1],7/1h[4:1],,,E2/B1/B2,,1,,
{4}8qq6[2:1]/1h[4:1],,E8/B8/B7,8,
{8}7/2q6[2:1],7/2h[4:1],,,E2/B1/B2,,1,,
(250)
{4}1bx<8V27-5b[4:13]/8bx>1V72-4b[4:13],,,,,,,,,,,,,,,,
{8}3,,3,,3,,4,4,
5,,7,,{16}1,,,,3,,{8},
{8}4,,5,,6,,7,7,
8/6h[8:1],,1/5h[8:1],,{16}2/4h[8:1],,,,3h[8:1],,{8},
{4}5-1b[2:1]/4hx[4:1],,2,2,
2h[8:1]/8,3h[8:1]/7,4h[8:1]/6,5h[8:1],
{4}4-8b[2:1]/5hx[4:1],,7,7,
7h[8:1]/1,6h[8:1]/2,5h[8:1]/3h[8:1],4h[8:1],
{4}5-1b[4:1]/4x,2,2,2,
5-1b[4:1]/4x,2,2x-6b[4:1],8,
7hx[8:1],8h[8:1]/6hx[8:1],1h[8:1]/5hx[8:1],2h[8:1]/4hx[8:1],
3b,,,Cf,
(250)
{4}1-7[8:1],1/5,1-3[8:1],1/6,
8-6[8:1],8/3,2-4[8:1],2/6,
5-7[8:1],4/5,4-8[8:1],4/8,
7<4[8:1],7/1,2,3/6,
{4}8-2[8:1],8/4,8-6[8:1],8/2,
1-3[8:1],1/6,7-5[8:1],7/3,
2<7[8:1],2/5,6>3[8:1],6/1,
2-5-1-6[2:1],,,,
{8}5h[8:1],,1,8,2,7,3,6,2,5,1,4,2,8,3,7,
4h[8:1],,8,1,7,2,6,3,5,2,4,1,8,2,7,3,
5h[8:1],,8,7,1,6,2,5,3,4,1,8,2,7,3,6,4h[8:1],,8,1,7,2,6,3,
{4}5>6[2:1],,,,
(250)
{4}6/2h[8:1],2h[8:1]/4,A5/E6/A6,A4/E4/A3,
3/7h[8:1],7h[8:1]/5,A4/E4/A3,A5/E6/A6,
2/6,2-5[8:1]/4,8,7-4[8:1],
2,3>8[8:1],5h[8:1],6h[8:1],
{4}7h[8:1],7h[8:1]/6,A4/E4/A3,A5/E6/A6,
5/2h[8:1],2h[8:1]/3,A5/E6/A6,A4/E4/A3,
7/4,5-2[8:1]/8,1,8-4[8:1],4V26-8[2:1],,,,
(250)
{8}5,5,8,1,7,2,6,{16}3,4,
{8}5,7,1,6,2,{16}7,6,5,,3,2,
{8}1,1,7,8,6,1,5,{16}2,3,
{8}4,6,8,7,1,6,{24}2,3,4,5,,,
{8}7,7,1,8,2,7,3,{16}6,5,
{8}4,2,8,3,7,{16}4,3,2,,7,6,
{8}5,5,{16}1,2,3,4,{8}6/5,,{24}7,8,1,2,3,4,
{4}5>7b[2:1],,,,
(125)2bpp2[4:6]/6bpp6[4:6],,,,,,,,
8>5[4:6]/6p7[4:6],,,,,,,,
{16}6h[16:3],,,5,{8}6,1-4[4:1],{8},8h[4:1],,,
{16}6h[16:3],,,5,{8}6,1-4[4:1],{8},8h[8:1],{16},8,,,
{16}6h[16:3],,,5,{8}6,1-4[4:1],{8},8h[4:1],,,
{16}6h[16:3],,,5,{8}6<4[4:1],1h[8:1],{8},,{16}8b,,,,
{16}6h[16:3]/2,,,5,,,7/3h[16:3],,,4,,,2/6h[8:1],,5,,
{16}7h[16:3],,,8h[16:3],,,1,,2>5[8:1],,1,,8,,,,
{16}6h[16:6],,,7,,,5,,6<1[8:1],,5,,4,,,,
{16}2h[16:6],,,3,,,1,,2>5[8:1],,1,,8,,7,,
{16}6/2h[16:3],,,4,,,7h[16:3]/3,,,5,,,2h[8:1]/6,,4,,
{16}1h[16:3],,,8h[16:3],,,7,,6>3[8:1],,8,,1,,2,,
{16}3/8-4[8:1],,,1,,,3,,1-5[8:1],,,,1/6<6<7>8>1>2>3<4<5<6[4:3],,7,,
{1},
{4}2h[4:1]/8<3[2:1],,E2/B1/B2,1,
{8}2/8<3[2:1],2/8h[4:1],,,E8/B8/B7,,8,,
{4}2h[16:3]/8p4[2:1],{8},2h[16:3],,,1h[8:1],,
{8}8pp2[2:1]/1,8h[4:1]/1,,,E8/B8/B7,,8,,
{4}7h[16:3]/1>6[2:1],{8},7h[16:3],,,8h[8:1],,
{4}7h[16:3]/1>6[2:1],{8},7h[8:1],,7,8,1,
{16}2,2,4,4,5,5,7,7,
1,1,3,3,5,5,7,7,
(250){16}D4,D5,D6,D7,D8,D1,D2,D3,D4/E8,E1,E2,E3,E4,E5,E6,E7,E8/A4,A5,A6,A7,A8,A1,A2,A3,A4/B8,B1,B2,B3,B4,B5,B6,B7,
{4}1bx<8V27-5b[4:13]/8bx>1V72-4b[4:13],,,,,,,,,,,,,,,,
{8}3,,3,,3,,4,4,
5,,7,,{16}1,,2,4,2,,{16}5,3,
{8}5,,6,,7,,8,8,
7/1h[8:1],,6/2h[8:1],,{16}5/3h[8:1],,,,4h[8:1],,{8},
{4}5-1b[4:1]/4x,2,2,2,
{4}5-1b[4:1]/4x,2,2,2,
{4}5-1b[4:1]/4x,2,2,2,
5-1b[4:1]/4x,2,2x-6b[4:1],8,
7hx[8:1],8h[8:1]/6hx[8:1],1h[8:1]/5hx[8:1],2h[8:1]/4hx[8:1],
3hx[8:1],4h[8:1]/2hx[8:1],5h[8:1]/1hx[8:1],6h[8:1]/8hx[8:1],
{8}7,7,8/6,8/6,1/5,1/5,2/4,2/4,
{4}3b,,,Cf,
(250)1>5[4:1]/8,1/8,8,2>6[4:1]/7,
2/7,7,1-4[8:1]/8,8/1,
8v5[8:1],4v1[8:1],6-8[8:1],2,
2-6[8:1],1-5[8:1],8-4[8:1],7,
6-8[8:1],3/6,4-1[8:1],7/4,
7-3[8:1],8-4[8:1],1-5[8:1],2,
2-4[8:1],2/6,5-1[8:1],5/2,
3,8-4[8:1],2-6[8:1],2,
8<4[4:1],8/1,1,7<3[4:1]/1,
7/2,2,8-5[8:1]/2,1/8,
1v4[8:1],5v8[8:1],3-1[8:1],7,
7-3[8:1],8-4[8:1],1-5[8:1],2,
2-6[8:1],8-4[8:1]/2
,3>8[8:1],3/7,
5v8[8:1],1v4[8:1]/5,7-2[8:1]/1,7,
{16}3b,4,5,6,7,8,1,2,3/7,8,1,2,3,4,5,6,7/3,4,5,6,7,8,1,2,3/7,8,1,2,3,4,5,6,
{8}1>4[8:1]/7,1,8,8,7<4[8:1],7,2,2,
1>4[8:1],1,6,6,7<4[8:1],,{16}4,3,2,1,
{8}8v3[8:1],,5,5,4v7[8:1],4,1,1,
2-6[8:1],2,1-5[8:1],1,8-4[8:1],8,7b,,
5-7[8:1],5,3,3,4-1[8:1],4,6,6,
7-3[8:1],7,8-4[8:1],8,1,,{16}8,7,6,5,
{8}4/2-8[8:1],2,7,7,6-3[8:1],6,2,2,
1-5[8:1],1,7-4[8:1],7,3b,,{24}1x,8,7,6,5,4,
{16}3>8[8:1],,3,,7<4[8:1],,7,,2v5[8:1],,2,,6v1[8:1],,6,,
3-8[8:1],,3,,7-4[8:1],,7,,2-5[8:1],,2,,7,,7,,
{24}8x,7,6,5,4,3,2,1,8,7,6,5,4,3,2,1,8,7,6,5,4,3,2,1,
8x,4x,8x,4x,8x,4x,7x,3x,7x,3x,7x,3x,6bx,2bx,6bx,2bx,6bx,2bx,{4}E7f/B7/B6/E3/B2/B3,
{24}8b,7/1,6/2,5/3,,,{8}1x,1,{24}8,7,6,5,4,3,2b,,,,,,
{24}1b,2/8,3/7,4/6,,,{8}8x,8,{24}1b,2,3,4,,,8b,7,6,5,,,
2b/Cf,3,4,5,6,7,8,1,2,3,4,5,6,7,8,1,2,3,4,5,6,7,8,1,
6b,5,4,3,2,1,8,7,6,5,4,3,2,1,8,7,6,5,{4}4w8b[8:1],4b,
E
