&title=A EaGLE
&artist=DRIVE.
&first=0.25
&des=Fruity Smash!!!!!
&lv_5=14+
&inote_5=(232)
{8},,,,,,,{24}81,72,63,
{1}5b-8[1:2]/4b-1[1:2],,
{8},,,,,,1,8,
{4}7h[4:3]/2b<2[2:11],,,,,,4,,6,6,,8,
8q5[4:3],,,,,,6p1[4:3],,,,,8,
7V51[2:1]/1,2,2,
3,82,71,
{8}65,6,34,3,47,7,
25,2,{16}8,1,8,1,8-4[8:1]*-4[8:1],,,,
{1}8qq5[4:7]/1,
{4},,4^1[4:1],,,
{16}5,1,5,1,6,1,6,1,7,1,7,1,
{8}8b,8-4[8:1],,2,2^5[8:1],,
6,6^1[8:1],,4,4-1[8:1],,
7,7-2[8:1],,4,4^1[8:1],,
7,7,7b/8b-4[8:1],,,,
2,2-5[8:1],,7,7^4[8:1],,
3,3^8[8:1],,5,5-8[8:1],,
2,2-7[8:1],,5,5^8[8:1],,
2,2,1b/2b-6[8:1],,,,
7-4[8:1],8,7,1-5[8:1],8,1,
7-5[8:1],8,7,2-5[8:1],1,2,
8-4[8:1],1,8,2-4[8:1],1,2,
7,7,7bv4[8:1]/8b,,,,
2-5[8:1],1,8,7-2[8:1],6,5,
4-7[8:1],3,2,1,81,,
43,43,2,65,65,8,
43,43,2,1b/8b,1bpp5[4:9]/8bpp6[4:9],1b/8b,
{4},,,
,,,
,,,
,,36,
8qq4[4:7]/1qq3[4:7],,,
,,,
,,,
25,65,7,
1-3[8:1]/8,1/8-6[8:1],8,
4-2[8:1],4/5-7[8:1],5,
{8}1,8,3,4,5,6,
{4}7/8-2[8:1],6-8[8:1]/8,6,
{8}3,3,1^4[8:1],,18,,
7,3,5^8[8:1],5,4,4,
1,3,8,2,7,1,
{16}26,3,4,5,26,7,8,1,2b/6b,,,,
{8}21,12,,87,87,,
38,74,6/5p1[8:1],,,,
78,87,,12,12,,
61,25,3/4q8[8:1],,,,
{4}1^4[4:1],7,6,
5^8[4:1],4,3,
2q5[2:1],1,8,
7,63,18,
{8}43,4h[8:1]/3h[8:1],,56,5h[8:1]/6h[8:1],,
4/2-5[8:1],2,7-4[8:1],7,1-5[8:1],1,
6-1[8:1],6,3-8[8:1],3,5,5,
{16}1,8,1,8,1,8,1,8,1,8,1,8,
{4}2bqq7[1:2]/7b,,6,
6,,5,
5,,,
4,,3,
3>5[2:3]/7<1[2:3],,,,,,,,,
5,46,73,
{8}1b^4[8:1]/5b,,7,7,5-2[8:1],8-5[8:1],
5<1[4:1],8,1>5[4:1],,5,,
1-4[8:1],6-1[8:1],1,6,,5-1[8:1],
5/1^3[8:1]*^7[8:1],,,,6v3[6:1],6,
3^6[6:1],,2,2,7,1,
{12}62,3,4,51,6,7,84,1,2,
{8}8-6[8:1]*-5[8:1],4,8b-2[8:1]*-3[8:1],,8b-4[8:1],,
8bw4[8:1],,,,7,2,
7V15[4:1],,5V74[4:1],4,3,2,
1>5[4:1],,5<1[4:1],,1,,
{12}5,6,7,83,2,1,68,7,8,
14,3,2,51,62,73,8b/4b,,,
{8}1-5[8:1],,4^1[8:1],,6,5,
8-4[8:1],,5^8[8:1],,2-5[8:1],2,
7-4[8:1],7,1-5[8:1],1,8,8,
{16}1,2,3,4,1-5[8:1],8,7,6,1b,,,,
{8}7-5[8:1]/8-4[8:1],,78,,7,8,
1-5[8:1]/2-4[8:1],,1-7[8:1]/2,,71,,
{16}4,5,4,5,3,6,3,6,2,7,2,7,{32}1,8,7,6,5,4,3,2,1,8,7,6,5,4,3,2,1,8,7,6,5,4,3,2,
{4}1b/8bq1[2:5],,,
,,,
6,,,
5,,,
2>7[4:3],,,
7V15[4:3],,,
5pp4[8:7],,,
4,,7,
6V84[2:1],64,,
3V15[2:1],35,,
{12}6,7,8,3,2,1,8,7,6,
8,7,6,3,4,5,6,7,8,
{4}1s5[2:1],51,,
7<8[8:7],74,,
6,5,4,73,62,{24}15,,,,62,73,
{4}8b/4bqq8[4:3],,,
7,6,51,
6pp5[4:3]/2,,{8}3,2,
{4}1,,
48,1p4[3:1]/5,,8,
{8}6,5,4,3,4,5,
6^1[4:1],,1^4[4:1],,4<8[4:1],,
1,1-4[8:1]*-6[8:1],,1b,,,
{4}4^1[8:1],4/5v8[8:1],5,
1v4[8:1],1/8^5[8:1],8,
{12}4,3,2,15,6,7,82,3,4,
58,7,6,45,3,2,61,7,8,
{8}1/2-6[4:1],,6^3[4:1],,1,8,
7V13[4:1],,3<8[4:1],,8,1,
2-5[8:1],2,7-4[8:1],7,3-8[8:1],3,
{16}7,6,5,4,73,2,1,8,3b/7b,,,,
{4}1s5[1:1]/8,,,
4,6,8,
72,36,{16}4,5,4,5,
4,5,4,5,4,5,4,5,4,5,4,5,
4,5,4,5,4,5,4,5,4,5,4,5,
4,5,4,5,4,5,4,5,4bw8[8:1],,,,
{8}4b,,2^5[8:1],5,2,6,
7-4[8:1]/2,8,2-6[8:1]/7,1,
7V53[6:1]/2,8,27,1,
{4}8b^3[8:1]*-3[8:1],8b^5[8:1]*-5[8:1],8bw4[8:1],,
{8}6,72,8/1>5[4:1],,5v2[6:1],6,7,8,
{4}1-5[8:1]/3,1/7-3[8:1],71,
{12}2b,2,2,3b,3,3,4b,4,4,
5b,5,5,6b,6,6,7b,7,7,
{16}81,,,,5V31[4:1]/2,36,74,,1,,8,,
7,,,,1V75[4:1]/6,72,38,,4,,3,,
{8}2-6[8:1],2,7-3[8:1]/2,7,71,1,
{16}14,5,6,7,4-8[8:1]*-8[8:1],3,2,1,4b,,,,
2,6,2,6,3,5,3,5,4,8,4,8,
3,1,3,1,4,6,4,6,1,5,1,5,
{40}2b,3,4,5,,6,7,8,1,,2,3,4,5,,6,7,8,1,,2,3,4,5,,6,7,8,1,,
{48}2b/7b,6,,5,4,,3,2,,1,8,,7,6,,5,4,,3,2,,1,8,,{32}7,6,5,4,3,2,1,8,
{4}7h[4:1],,,,,,,,,1h[24:1],
E
