&title=Lies
&artist=MK
&first=-0.7099996
&lv_5=13+
&des_5=Runabout
&inote_5=
(135){4},,,,4/5,
3xh[8:5],{8},5,,4,
,,{4}3xh[4:1],{2}4-6[8:1],
{4}3,6xh[8:5],{8},4,,5,
,,{4}6xh[4:1],{2}5>3[8:1],
{4}5,6xh[8:5],{8},4,,5,
,,{4}6xh[4:1],{2}5-3[8:1],
{4}6,3xh[8:5],{8},5,,4,
,,{4}3xh[4:1],{2}4<6[8:1],
4h[2:1],{8}6,7,{4}8>4[4:1],
4<8[4:1],1,3,{8}4<6[8:1],3,
{2}2,{8}3,2,{4}1V75[4:1],
5V31[4:1],8,6,{8}5-3[8:1],6h[8:11],
{4}5-2[12:1],5-1[8:1],{2}5-8-3-5b[2:1],
{8},,,,6,5,4<6[8:1],3h[8:11],
{4}4q8[8:1],4qq2[8:1],{2}4pp1b[2:1],
{8},,,2,3,4,5,6,
{4}7h[4:3],5,5qq2[2:1],5,
7,6,5,6/1,
5h[4:1],3h[4:1],8h[4:1],6h[4:1],
8,{8}7/4,2,3,4,5,6,
{4}7h[1:2],3,,5qq2[4:3],
,,,,1h[4:5],
7,{2}5V37[8:3],
{4},6xh[4:1],4xh[4:1],2xh[4:1],
{1}4h[1:1],
{32}1bv3[8:1],8,{16}7,,,{4}1-5-7[6:1],1v3[8:1],{8}1-5-7[6:1],7,
1v3[8:1],2,{4}1-5-7[6:1],{2}1v3[8:1]*-7[8:1],
{32}1<7[8:1],2,{16}3,{32},,,,6q2[8:1],5,{16}4,{32},,,,2,3v5[32:3],{16}4,,,{4}3-7-1[6:1],
{2}2-6-4[6:1],{8}1x/5x-1[12:1],2x-4[12:1],{24},,,,,,8v6b[8:1],
7,{12}6,,{4}4V62[6:1],8v6b[8:1],{8}4V62[6:1],3,
8v6b[8:1],7,{4}3v5[8:1],{2}3-8[12:1]*V17[8:1],
{32}6<8[12:1],5,{16}4,{32},,,,3>1[12:1],4,{16}5,{32},,,,7,6,{16}5,,,{4}8<5[12:1],
3b>8b[12:1],6b>3[12:1],{8}1bpp3[8:1]*<6[12:1],2,{24},,,,,,2bx/5bx,
3,{12}4,,6,{24}4,5h[8:1],,,{12}3,{24}6,5h[8:1],,,{8}7,3,
8/4,3,{12}2x-8[12:1],{24}7x,4x-6[12:1],,,{2}2-6b[12:1],
{8}4/5h[8:1],3,4/5h[8:1],7,5h[8:1]/4-7[12:1],1-3b[12:1],,,8,
8,{12}2,{24}5,4h[8:1],,,{12}7v1[8:1],{24}3,5,,,,,,,,,7b/4b,
6,{12}5,,3,{24}5,4h[8:1],,,{12}6,{24}3,4h[8:1],,,{8}1,5,
2/6,7,{12}8x>3[12:1],{24}3x,5x<8[12:1],,,{2}8-4b[12:1],
{8}5/4h[8:1],6,5/4h[8:1],2,4h[8:1]/5-2[12:1],8-6b[12:1],,,1,
1,{12}7,{24}4,5h[8:1],,,{12}3-1[12:1]*-8[12:1],{24}6,4,,,,,,,,,{8}Ch[8:7],
,,,,,,8pp6[8:5],
{16},,,,,,E6,E5,{4}E4,E3,
{8}2pp6[1:1],,,,,,,7pp2[8:5],
{16},,,,,,D6,D5,{4}D4,E5,
{8}1qq3[1:1],,,,,,,6pp1[8:5],
{16},,,,,,E5,E4,{4}E3,E5,
{8}2pp5[1:1],,,,,,,7h[2:1],
,,,4,3,2,8-4b[8:1],7,
{4}6,6,6,6/5qq2[2:1],
6,6,6-1[8:1],4-2[12:1],
4-6[12:1],4v1V35[2:1],4,6,
7,{8}8,4,3,2,7,6,
{24}1-6[8:1],2,{12}3,,{4}8,7-4[8:1],5,
2-6[8:1],7,{2}8v1[8:1],
{8}4/7,3,2/5,6,1/7,4,2/8,6,
{12}1,{24}1,7,,7,{12}3,{24}3,4,,4,{12}5,{24}5,6,,6,{12}8,{24}8,5h[8:9],,,{4}7x,
8x,1x,2x,
{24}8V26[6:1],1,{12}2,,{4}8V24[8:1],8V26[6:1],{8}8x-4[12:1],4x-8[12:1],
{2}8xV26[6:1],{24}8<6[12:1],1,2,3<5[12:1],,,,,,,,,{4}8V64[0.4444##0.2963],
5V31b[6:1],8V64[6:1],{8}3x-7[8:1],1x-4[8:1],
{2}8x-5[8:1],{8}6/2x<8[12:1],4xpp6[8:1],{24},,,,,,4V68[8:1],
3,{12}2,,{4}4V62[6:1],4V68[12:1],{8}4x-1[12:1],1x-6[12:1],
{2}5-2[12:1]*-8[12:1],{24}7-2[12:1],6,5,4-1[12:1],,,,,,,,,{4}5V73[6:1],
1V35b[6:1],5V73[6:1],3V17b[8:1],
6bV42[8:1],1bV75b[8:1],{8}3bv1[8:1]*V57[8:1],2,{24},,,,,,6b/2b,
5/3,{12}4,,7,{24}2,1,,3,{12}5-1[12:1],{24}2,8,,,{8}5/6,7,
3/4,2,{12}7-5[12:1],{24}2,1-5[12:1],,4,{2}7>5b[6:1],
{8}6/2-4[12:1],1,2/8-2[12:1],7,8/6x-8[12:1],5x-3b[12:1],,,1,
7,{12}5,{24}4,6,,3,{8}5V72[6:1]*V38[6:1],7/3,{24},,,,,,7b/3b,
6/4,{12}5,,2,{24}7,8,,6,{12}4-8[12:1],{24}7,1,,,{8}4/3,2,
6/5,7,{12}2>4[12:1],{24}7,8p4[12:1],,5,{2}2<4b[6:1],
{8}3/7-5[12:1],8,7/3-1[12:1],4,3/7x-5[12:1],8x-4b[12:1],,,7,
3,{12}4,{24}5,3,,6,{8}4qq2[8:1]*pp6[8:1],2/6,,,{4}3-1[12:1],
7h[8:1],8-2[12:1],{8}5,5,
{4}4-6[12:1],8h[8:1],7-5[12:1],1-5-3[6:1],
A7/E8/B7/1-5-7[6:1],E3/B3/A3/1-5-3[6:1],{2}A7/E8/B7/1>7[4:1],
{24},,,,,,7/2,,,,,6,,,6,4,,,{4}7/3,
7-5[12:1],3h[8:1],4-8[12:1],{8}1,1,
{4}2-4[12:1],6h[8:1],5-1[8:1],6-4[8:1],
2v4[8:1],7-3[8:1],{8}1pp4[8:3],2,5,7,
{24},,,,,,3/6,,,,,2,,,2,8,,,{4}3/7,
{8}4/5<3[1:1],,,,,,,4>7b[8:5],
,,,,,,{4}B5h[8:1],
{8}4V68-2[1:1],,,,,,,4V28b[2:1],
,,,,,A6h[4:1],{4}E6h[8:1],
{8}4>6[1:1],,,,,,,5<2b[8:5],
,,,,,,{4}B4h[8:1],
{8}5V31-7[1:1],,,,,,,5V71b[2:1],
,,,,{2}3h[2:1],
{24}1-4[1:1],8-5-3b[24:23],{12}7,
E
