&title=PLAYERRRS!!!
&artist=打打だいず & Tanchiky & s-don
&first=0.045
&des=NULLOYI!!!
&lv_5=13.7
&des_5=NULLOYI!!!
&inote_5=
(165){4},,,,{2}1bxh[4:1]/7bx<4[8:1],
5bxh[4:1]/3bx>8[8:1],
{4}6v1[8:1],{8}2/6,3,4-8[8:1],8,{4}4/7-5-1[4:1],
{8}7,{16}2,3,{8}4x,8x-6[8:1],{16}4,4,,3,{8}3,{16}2,1,
3,8,4,7,5,6,5,6,{4}5-1[8:1],5/3,
{8}4/8,{16}7,5,,6,{8}4,{16}5,3,5,3,{8}5,{16}3,4,
{8}3-8[8:1],2,3/4-7[8:1],5,{4}4/1>4[8:1],1/8,
{8}5xz1[8:3]/1x<6[8:3],,,,,,,E1,
{16},,1,8,{8}1,2/7,4-8[8:1],3,4/6>1p8[1:1],7,
{1}6b/1,
{4},C,{16}5,6,4,7,3,8,2,1,
2>5[8:1],,,1,{8}2,8,{16}7<4[8:1],,,3,{8}7,2,
{16}1>5[4:1],,,4,{8}1,6,{4}8h[8:3],1b,
{8}7/4,{16}6,5,{8}6,7/4,5/2,{16}3,4,{8}3,5/2,
6/1,{16}7,8,{8}7,6/1,8/3,{16}2,1,{8}2,3/8,
7/4,6,2/5,3,{16}4,6,4,6,3,7,3,7,
{4}1b-3-5v4b[8:3],,,Cf,
6b/2b,{16}3,5,3,5,4,6,4,6,5,7,5,7,
4,6,3,5,2,4,3,5,{8}4v7[8:1]*-1[8:1],E6,,,{4}6/2,
{16}5,3,5,3,4,2,4,2,{8}3-7[8:1],1,
{4}3/2-5[8:1],2/8h[8:1],{16}3bh[16:1]/1bh[16:1],,,5bh[16:1]/7bh[16:1],,,{8}2bh[16:1]/4bh[16:1],
{4}5-1[8:1],{8}5x/3h[16:1],3h[16:1],3h[16:1]/5-7[8:1],3h[16:1],5x/3h[16:1],3h[16:1],
3h[16:1]/5-8[8:1],3h[16:1],{4}5x/3h[16:1],{16}7bx/1bx,,,6b/2b,,,{8}5b/3b,
{16}3-8[8:1],4,,4,{8}3,5,{16}6-1[8:1],5,,5,{8}6,4,
{16}2,8,2,8,3,7,3,7,4,6,4,6,5x,5x,5x,5x,
{4}5x,8b/2b,{16}3,6,3,6,4,7,4,7,
5,6,4,7,5,6,4,7,3-7[8:1],5,,5,{8}3,6,
{16}8x-5[8:1],7x,,1,{8}8,2,{2}4/6w2[8:1],
{4}8/C,3/C,{16}6/C,,,2/C,,,{8}8/C,
{24},,{12}7x/1x,7x/1x,7x/1x,{24},{8}2b,{16}3,5,4,6,{8}5h[8:1],8b,
{16}4,6,3,5h[8:1],{8}2,1b,4q8[8:1],4,{16}8,1,2,3,
4,,,1/5,,,4/8,3/7,2/6,,,4h[16:3]/8h[16:3],{48},,,,,,,,,,,,{12}1,
1,1,5/1,5/1,5/1,{4}5<8[8:1]/1>4[8:1],5/1,
{16},,7,5,{8}6,{16}2,4,{8}3,{16}7,5,{8}6-4-8[4:1],2,
6,{16}1,2,{8}3,7,4/6v1[8:1],7,6/2-4[8:1],3,
2b/8,{16}6,7,{8}5,{16}2,1,{8}3,{16}7,8,{8}6>4-8-3-7[4:3],1,
,,,,,,{4}C,
{16},,8,1,{8}7,6/2,{16}3<6[8:1],,,8,{8}3,7h[8:1],
{16},,1,8,{8}2,3/7,6v1[8:1],7,4v1[8:1],3,
4,{16}7,8,{8}6,{16}2,1,{8}3,{16}6,5,{8}7,{32}E2f,E3,,,,,,,7,
6,{16}5,{32}1,2,{16}3,{32}7,6,{16}5,{8}2-6[8:1],3,2/8w4[8:1],7,
{1}Cf/8b-2-4>1-7-5<8[4:11],
{2},,,,,C,
{8}3h[16:3]/5h[4:1],,,5/3,{4}5/3,C,
{8}6h[16:3]/4h[4:1],,,4/6,{4}4/6,C,
2q6[4:1],7,8p4[4:1],3,
2q6[4:1],1,8-4[8:1],8b/1b,
{8}5/3,5/3,6-2[8:1],6,4,4h[8:1],{4}E1,
{8}4/6,4/6,3-7[8:1],3,5,5h[8:1],{4}E1,
{16}2>4[8:1],1,2,1,{4}2,{16}7<5[8:1],8,7,8,{4}7,
{8}3-8[8:1],2,3/4-7[8:1],5,{4}4,C,
{8}8-4[8:1],{16}1,7,{8}8,2-5[8:1],{16}3,1,{8}2,7-4[8:1],{16}6,8,
{8}7,3v8[8:1],{16}2,5,{8}3,6h[16:3],1,2,3,
{4}4/7-3[16:1],7b/4b,2-6[16:1],2b/5b-8[8:1],
5/4h[8:1],{16}3/1,3/1,,2x,2,2,2,2,{4}2,
{16}8/1,{32},,,,1,2,3,4,,,8,7,6,5,{8}Cf,{16},,,,2,1,
{8}3,8-6[8:1],7,8/4-2[8:1],3,4,{16}5,5,,1b,
,,8>2[8:1],7,{8}6,8-3[8:1],4,8-4[8:1],5,8,
7-5[8:1],6,7/3v8[8:1],2,3/4,4,{16}1/5,1/5,,7/3,
{32},,,,6,7,8,1,{4}2x<5[8:3],{16}2/4,,,3,,,{8}2,
{4}1b,{32}8/Cf,1,2,3,4,5,6,7,8,1,2,3,4,5,6,7,{8}8,{16}2x,2x,
{4}3/1<6[8:1],1/4-8[8:1],4/5-1[8:1],5b/2,
{16},2/8,{8}2/8,7/1,7/1,{16},2/4,{8}2/4,7/5,7/5,
{32}2,3,{16}4,{8}6,{32}1,2,{16}3,{8}5,{32}8,1,{16}2,{8}5,{4}8>3[16:3],
{16}8/5,6,7,8,{4}1/E5f/A4/A5,4h[8:1]/8h[8:1],5h[8:1]/7h[8:1],
2h[8:1]/4h[8:1],{16}7,8,{8}7,1-5[8:1],6-1[8:1],1,6,
,,{4}4h[8:1]/8h[8:1],4h[8:1]/2h[8:1],7h[8:1]/5h[8:1],
{8}C,,,1/7,3h[8:1],{32}8,7,{16}6,{8}4,5/3,
{2}Ch[4:1],{8}6,7/5,2,3/1,
{12}4,4,4,4/8,4/8,4/8,{4}7b/3b,2-5[8:1]/6v1[8:1],
6/2,{32}8,7,6,5,4,3,2,1,{4}8/4,{32}1,2,3,4,5,6,7,8,
{16}1/5,,,2b/4b,,,{8}7b/1b,{16},6b/4b,,,{8}3,2b/5b,
{1}Cf/1bs5-3-8[2:1],
{12}1/7,2/6,{6}3/5,{12}4/6,4/6,{4}1b,Cf,
{2}8bxh[4:1]/2bx>5[8:1],4bxh[4:1]/6bx<1[8:1],
{4}3v8[8:1],{8}7/3,6,{16}5,5,,1,,2x/C,,,3-1[8:1],
4,3,4,{4}3,{16}7-5[8:1],8,7,8,{4}7,
{8}3,2/4,6,7/5,3b,1b/6b,{16}8,7,8,7,
1,6,1,6,2,5,2,5,3,4,3,6,5,6,3,4,
3,4,2,6,5,7,3,4,{8}1,2/6,{16}3,7,4,8,
{8}5-3-1[8:3]/1V75[8:3],,,,,,,C,
{16},,7,8,{8}7,6/1,3-8[8:1],4-7[8:1],3,4,
{16},,2,1,{8}2,3/8,B6/E7,E3/B2,E1/B8,4b,
{16},,5,5,{8}5,6/4,5/3v8[8:1],2,3/5<1[4:1],6,
{4}5/1bx>5[4:1],5<1[4:1],1>5[4:1],5<1[4:1],
1>5[4:1],5<7[8:1],1h[8:1],C,
{16}7<4[8:1],,,8,{8}7,1,{16}2>5[8:1],,,6,{8}2,7,
{16}8<4[4:1],,,5,{8}8,3,{4}1h[4:1],Cf,
{16}7h[8:1]/5h[8:1],,,4h[8:1]/2h[8:1],,,{8}8h[8:1]/6h[8:1],{16},1h[8:1]/3h[8:1],,,{8}C,7-5[8:1],
{16}7,,,1,,,{8}4/2,{16}3,3,3,3,{4}3h[8:1],
3-8[8:1]/4-7[8:1],4/3,3-8[8:1]/4-7[8:1],4/3,
3-8[8:1]/4-7[8:1],4/3,{32}1x,2,3,4,5,6,7,8,{4}1/Cf,
E
