&title=Happy Lucky Go!
&artist=Mana Ashida
&first=0.39
&des=天兔爭仙 -Diamond-
&lv_5=15
&inote_5=(165)
{8}3,2,1,3h[8:3],,7,8<4[4:2],,
3,2,1,8,{24}3,2,1,8,7,6,{8}5b/1b,,
{16}8-4[8:1],,,,81,,,3,5<7[8:1],,5,,1-5[8:1],,1,,
1,,,,46,,,6,4>2[8:1],,4,,8-4[110#24:1],,8,,
{8},8b/Cf/B5/B4/B3/E5/E4/A5/A4/A3,2-6[16:1],,2b/Cf/B7/B6/B5/E7/E6/A7/A6/A5,1pp1[4:1]*qq1[4:1],,1bw5[110#24:1]b,
,,B1/B2/B3/B4/B5/B6/B7/B8/E1/E3/E5/E7/Cf,,,,,,
{4}8b/1-5[8:1],1b/2-6[8:1],2b/3-7[8:1],3b/4-8[8:1],4b/5-1[8:1],5b/6-2[8:1],6b/7-3[8:1],7b/8-4[8:1],
8b/1-5[8:1],1b/2-6[8:1],2b/3-7[8:1],3b/4-8[8:1],{8}4b/5,6,7/1<2[4:1],8h[4:1]/2,,,,,
{4}1b/8-4[8:1],8b/7-3[8:1],7b/6-2[8:1],6b/5-1[8:1],{8}5b/4,3,2/8>7[4:1],1h[4:1]/7,,,,,
{4}1<6[16:1]/2>5[16:1],A1/D2f/A2,8>3[16:1]/7<4[16:1],A8/D8f/A7,
8<5[16:1]/1>4[16:1],A8/D1f/A1,E5,C,
7b-5-3-1-7[4:3]/2b-4-6-8-2[4:3]`B7/B2`Cf`B6/B3`A6/A3,,,,
,B1/B2/B3/B4/B5/B6/B7/B8/E1/E3/E5/E7/Cf,,,
{8}6,4,2>5[8:1],2,2h[8:3],,6,8,71,82,6-4-2-8-6[4:1]/4,5/3h[8:5],,,A6,,
,5,7,7,7/2-5[8:1],,2/7-4[8:1],7,7/1s5[4:2],,1,1h[8:5],,,A5,,
,6,8,8,8<5[4:1],,5>2[4:1],5,2<7[4:1],,7>2[4:1],,,,4pp4[4:1]/A2,,
4-2[8:1],,7x,6-8v1-3[4:1]b,,,,,
{16},,5,5,5,,,,5,5,5,,E7/B6/B7/B2/B3/E3,,,,
{8}2,1,83,83,8<4[8:1]/3,,8,1,{48}5x/3h[4:1],6x,7x,8xh[48:3],,,7x,6x,5xh[48:4],,,,,6x,7x,8xh[48:3],,,7x,6x,5xh[48:28],,,,{8}4b`B4`C`B8,,2b`B2`C`B6,,
{8},4,36,72,81,,{8}1h[8:1]/2h[8:1],E1/B1/B2/E3/B8/B3/B7/B4/E7/B6/B5/E5/6xh[48:6]/5xh[48:6],E1/B1/B2/E3/B8/B3/B7/B4/E7/B6/B5/E5/1xh[48:6]/2xh[48:6],,E1/B1/B2/E3/B8/B3/B7/B4/E7/B6/B5/E5/6xh[48:6]/5xh[48:6],E1/B1/B2/E3/B8/B3/B7/B4/E7/B6/B5/E5/1xh[48:5]/2xh[8:5],{48}8b,7x,6x,5x,,,,,,,,,7b,6x,5x,4x,,,,,,,,,
{8},35,46,57,68,,7<4[8:1]/1,8,7/8-4[8:1],,8/1-5[8:1],,1/2>5[8:1],,2/8-6-4[8:1],,
8b-2-4[8:1]/2,,8b-4-8[4:1]/6,,8b,8bw4[8:1],,8xb/Cf,
{8},,,
5,5,4,3,2,
(82.5)
{16}1p6[4:1],,,6,6<3[8:1],,3-8-4[8:2],{64}3,4,5,,,,,,{16},4-7[8:1],,3,,2,,
1-6[8:1],,6q3[8:1]/5,,3p8[8:3]/1q5[8:3],,,,,,,,,,,,
(165)
{8}1/E6f/B6/B5,8/E4f/B3/B4,2/E7f/B7/B6,7/E3f/B2/B3,3/E8f/B8/B7,,6/E2f/B1/B2,4/E8f/B7/B8,,5/E1f/B8/B1,,3/E8f/B8/B7,{16}6/E2f/B1/B2,,,2/E7f/B7/B6,,,7/E3f/B2/B3,,
{8}8w4[16:1]/1w5[16:1],,A8/A1/D1f,,8b/1b,6b/3b,7b/2b<7>2[82.5#16:1]b,5b/4b,
{4},A2f,,{32}6,5,4,3,2,1,8,7,
{4}5p8[8:1]/6b,4p7[8:1]/5b,3p6[8:1]/4b,2p5[8:1]/3b,1p4[8:1]/2b,8p3[8:1]/1b,7p2[8:1]/8b,6p1[8:1]/7b,
{4}5p8[8:1]/6b,4p7[8:1]/5b,3p6[8:1]/4b,2p5[8:1]/3b,{8}2b/1,8,7<8[4:1]/4,6/3h[8:3],,,,,
{4}4q1[8:1]/3b,5q2[8:1]/4b,6q3[8:1]/5b,7q4[8:1]/6b,{8}7b/8,1,2>1[4:1]/5,3/6h[8:5],,,,,
,6h[9:1]/8h[9:1],6h[9:1]/8h[9:1],6h[9:1]/8h[9:1],6h[9:1]/8h[9:1],6h[9:1]/1h[9:1],6h[9:1]/2h[9:1],6x>2[9:1]/3h[48:29],
,,,{32}5,4,2,1,4,5,6,7,8,15,26,73,8b/4b/B8/Cf/B4,,,,,,,,
{4}4q1[8:1]/3b,5q2[8:1]/4b,6q3[8:1]/5b,7q4[8:1]/6b,8q5[8:1]/7b,1q6[8:1]/8b,2q7[8:1]/1b,3q8[8:1]/2b,
{4}4q1[8:1]/3b,5q2[8:1]/4b,6q3[8:1]/5b,7q4[8:1]/6b,{8}7b/8,1,2>1[4:1]/5,3/6h[8:3],,,,,
{4}5p8[8:1]/6b,4p7[8:1]/5b,3p6[8:1]/4b,2p5[8:1]/3b,{8}2b/1,8,7<8[4:1]/4,6/3h[8:3],,,,,
{4}8>3[16:1]/7<4[16:1],A8/D8f/A7,1<6[16:1]/2>5[16:1],A1/D2f/A2,
1>4[16:1]/8<5[16:1],A1/D1f/A8,E5,C,
2b-4-6-8-2>2[4:6]/7b-5-3-1-7<7[4:6]`B2/B7`Cf`B3/B6`A3/A6,,,,
{1},
{8}45,3,45,6,35,2,46,7,4s8[8:1]/5z1[8:1],,B8/B7/B6/B5/B4/B3/B2/B1/E1/E7/E5/E3/Cf,,,,,,
3,5,7<4[8:1],7,7h[8:3],,3,1,28,17,3-5-7-1-3[4:1]/5,4/6h[8:5],,,A3,,
,4,2,2,2/7-4[8:1],,7/2-5[8:1],2,2/8z4[4:2],,8,8h[8:5],,,A4,,
,3,1,1,1>4[4:1],,4<7[4:1],4,7>2[4:1],,2<7[4:1],,,,5qq5[4:1]/A7,,
5-7[8:1],,2x,3>1-4pp4[4:1]b,,,,,
{16},,5,5,5,,,,5,5,5,,E7/B6/B7/B2/B3/E3,,,,
{8}7,8,16,16,1>4[4:1]/6,,1,8,
1>4>5[4:1],,,,4xh[4:2],{64}6,7x,8x,1x,2x,,,,2,1x,8x,7x,6x,,,,,,,,,,,,
{8},4,36,72,81,,73,15,
7h[8:1]/3h[8:1],,1pp1qq1[4:2]/5pp5qq5[4:2],73,
{2},
{8}A1/A5,64,53,42,31,,2>5[8:1]/8,1,2/1-5[8:1],,1/8-4[8:1],,8/7<4[8:1],,7/1-3-5[8:1],,
1b-7-5[8:1]/7,,1b-5-1[4:1]/3,,1b,1bw5[8:1],,1xb/Cf,
{8},,,
5,5,4,3,2,
(82.5)
{16}8q3[4:1],,,3,3>6[8:1],3,6-1-5[8:2],{64}6,5,4,,,,,,{16},5-2[8:1],,6,,7,,
8-3[8:1],,3p6[8:1]/4,,6q1[8:3]/8p4[8:3],,8,8,,,,,,,,,
(165)
{8}8/E4f/B3/B4,1/E6f/B6/B5,7/E3f/B2/B3,2/E7f/B7/B6,6/E2f/B1/B2,,3/E8f/B8/B7,5/E2f/B2/B1,,4/E1f/B1/B8,,6/E2f/B1/B2,{16}3/E8f/B8/B7,,,7/E3f/B2/B3,,,2/E7f/B7/B6,,
{8}1w5[16:1]/8w4[16:1],,A1/A8/D1f,,1b/8b,3b/6b,2bv3-5[82.5#16:1]b/7b-5-1[82.5#16:1]b,4b/5b,
{4},A7/A2/Cf,{28}2,3,4,5,6,7,8,{36}13,4,5,6,7,8,1,2,3,
{4}5b/4<7[8:1],4b/3q8[8:1],3b/2>5[8:1],2b/1q6[8:1],1b/8>3[8:1],8b/7q4[8:1],7b/6<1[8:1],6b/5q2[8:1],
{4}5b/4<7[8:1],4b/3q8[8:1],3b/2>5[8:1],2b/1q5[8:1],{8}1b/8,7,6/4<3[4:1],5h[4:1]/3,,,,,
{4}4b/5>2[8:1],5b/6p1[8:1],6b/7<4[8:1],7b/8p4[8:1],{8}8b/1,2,3/5>6[4:1],4h[8:5]/6,,,,,
{8},8h[9:1]/4h[9:1],1h[9:1]/4h[9:1],7h[9:1]/4h[9:1],2h[9:1]/4h[9:1],6h[9:1]/4h[9:1],3h[9:1]/4h[9:1],5h[9:1]/4h[8:5],
{32},,,,5,6,7,8,,,,,6,7,8,1,5,6,7,8,1,28,37,46,{4}5b/E6/E5/B5/Cf/B8/B1/B2/E1/E2/A8/A1/A2,
{4}4b/5>2[8:1],5b/6p1[8:1],6b/7<4[8:1],7b/8p3[8:1],8b/1<6[8:1],1b/2p5[8:1],2b/3>8[8:1],3b/4p7[8:1],
{4}4b/5>2[8:1],5b/6p1[8:1],6b/7<4[8:1],7b/8p4[8:1],{8}8b/1,2,3/5>6[4:1],4h[4:1]/6,,,,,
{4}5b/4<7[8:1],4b/3q8[8:1],3b/2>5[8:1],2b/1q5[8:1],{8}1b/8,7,6/4<3[4:1],5h[8:3]/3,,,,,
{4}5w1[16:1]/6w2[16:1],A6/D6f/A5,4w8[16:1]/3w7[16:1],A3/D4f/A4,8w4[16:1]/1w5[16:1],A1/D1f/A8,E5,C,
{1}8bh[4:15]/1b<1-7-5-3-1<8-6>5-3-1-7-5>4-2<1<7-5>3-1-7-4-1-6-3-1-7<5-3>1pp3pp5pp7pp1[4:14]b/D1/E1/B8/B1/Cf,,,,
{16}4,5,4,5,3,6,3,6,2,7,2,7,1,8,1,8,
{24}4,5,4,5,4,5,3,6,3,6,3,6,2,7,2,7,2,7,1,8,1,8,1,8,
{8}5x/4x,6,54,3,64,7,53,2w6[110#12:5]*-6[110#8:1]*-5[66#13:1]*-7[47.1428#36:1],,,2,,2,,2,,
(82.5)
{8}5p7[4:1],6,7p1[4:1],8,1p3[4:1],2,3p5[4:1],4,5p7[4:1],,7>3[8:3]*q3[8:3],6,5h[4:2],,,,
{8}6-1[16.5#38:1],7,8-3[16:1],1,2-5[16:1]/8,3x-8[55#12:1],4-7[8:1]/2,5x-2[55#11:1],
3>4[41.25#32:3]/4<3[30#9:1],,56,,3,,,,
4<7[4:1],3,2-5[4:1],1,8>3[4:1],7,6-1[4:1],5,
6/4-1[4:1],,5s1[4:2]b/4,6,5h[4:2],,,,
,5,46,37,{16}7/2-6[33#20:1],C,B6,8/2-6[37.125#16:1],B2,,1/2-6[41.25#32:1],,
{16},,2,A6,2,C,2,,2h[16:3],,,3h[16:3],,,1-5[110#24:1],,
(165)
{8},1b/Cf/B6/B5/B4/E6/E5/A6/A5/A4,7-3[16:1],,7b/Cf/B4/B3/B2/E4/E3/A4/A3/A2,2-6[16:1]b,,2b/8-3[16:1]*-5[16:1]/Cf,
,8b/Cf/B5/B4/B3/E5/E4/A5/A4/A3,7-2[16:1]*-4[16:1],,7b/Cf/B4/B3/B2/E4/E3/A4/A3/A2,1-5[16:1]b,,1b/8w4[16:1]/Cf,
,8b/Cf/B5/B4/B3/E5/E4/A5/A4/A3,7w3[16:1],,7b/Cf/B4/B3/B2/E4/E3/A4/A3/A2,1pp1[4:1]*qq1[4:1],,1bw5[110#24:1]b/Cf,
,,D1/A1f/D2,,,,{20}5b,4b,3b,2b,1b,
{32}8-3[16:1]/7b,E8f,B7,B6,E6,A5,,,8b/1q6[16:1],D2f,A2,D3,A3,,,,
1b/2-4<5[16:1],E2f,B1,B8,E8,A7,,,2b/3q8[16:1],D4f,A4,D5,A5,,,,
4-6<7[16:1]/3b,E4f,B3,B2,E2,A1,,,4b/5q2[16:1],D6f,A6,D7,A7,,,,
5b/6-8>1[16:1],E6f,B5,B4,E4,A3,,,6b/7q4[16:1],D8f,A8,D1,A1,,,,
8-2>3[16:1]/7b,E8f,B7,B6,E6,A5,,,8b/1q6[16:1],D2f,A2,D3,A3,,,,
1b/2-4<5[16:1],E2f,B1,B8,E8,A7,,,2b/3q8[16:1],D4f,A4,D5,A5,,,,
{8}3b/4,5,6<4[8:2]/1,2h[8:2]/7,{48}A6,D7,A7,D8,A8,D1,A1,D2,A2,D3,A3,D4,{4}A4,
{32}1-6[16:1]/2b,E2f,B2,B3,E4,A4,,,1b/8p3[16:1],D8f,A7,D7,A6,,,,
8b/7-5>4[16:1],E8f,B8,B1,E2,A2,,,7b/6p1[16:1],D6f,A5,D5,A4,,,,
{8}6b/5,4,3>5[8:2]/8,7h[8:5]/2,{48}A3,D3,A2,D2,A1,D1,A8,D8,A7,D7,A6,D6,{4}A5,
{8},7h[9:1]/8h[9:1],8h[9:1]/1h[9:1],1h[9:1]/2h[9:1],2h[9:1]/3h[9:1],3h[9:1]/4h[9:1],4h[9:1]/5h[9:1],5h[9:1]/6h[8:5],
{32},,,,5,7,8,1,,,,,4,5,7,8,17,28,31,4,{54}5,6,7,8,15,26,37,{4}4b/8b/B4/Cf/B8,
{32}1-6[16:1]/2b,E2f,B2,B3,E4,A4,,,1b/8p3[16:1],D8f,A7,D7,A6,,,,
8b/7-5>4[16:1],E8f,B8,B1,E2,A2,,,7b/6p1[16:1],D6f,A5,D5,A4,,,,
5-3>2[16:1]/6b,E6f,B6,B7,E8,A8,,,5b/4p7[16:1],D4f,A3,D3,A2,,,,
4b/3-1<8[16:1],E4f,B4,B5,E6,A6,,,3b/2p5[16:1],D2f,A1,D1,A8,,,,
1-7<6[16:1]/2b,E2f,B2,B3,E4,A4,,,1b/8p3[16:1],D8f,A7,D7,A6,,,,
8b/7-5>4[16:1],E8f,B8,B1,E2,A2,,,7b/6p1[16:1],D6f,A5,D5,A4,,,,
{8}6b/5,4,3>5[8:2]/8,7h[8:2]/2,{48}A3,D3,A2,D2,A1,D1,A8,D8,A7,D7,A6,D6,{4}A5,
{32}8-3[16:1]/7b,E8f,B7,B6,E6,A5,,,8b/1q6[16:1],D2f,A2,D3,A3,,,,
1b/2-4<5[16:1],E2f,B1,B8,E8,A7,,,2b/3q8[16:1],D4f,A4,D5,A5,,,,
{8}3b/4,5,6<4[8:2]/1,2h[8:2]/7,{48}A6,D7,A7,D8,A8,D1,A1,D2,A2,D3,A3,D4,{4}A4,
{4}1<6[16:1]/2>5[16:1],A1/D2f/A2,8>3[16:1]/7<4[16:1],A8/D8f/A7,
8<5[16:1]/1>4[16:1],A8/D1f/A1,E5,C,
1b-6-3-8-5-2-7-4>4>4[4:6]b/8b-5-2-7-4-1-6-3>3>4[4:6]b`B7/B2`Cf`B6/B3`A6/A3,,,,,,,,
{8}45,3,45,6,53,2,64,7,25,1,47,8,54,81,5/4>4[4:2]*qq2qq8qq6qq4[4:2],,
{4}4b,,,
{16}4b,5b/3b,2b/6b,7b/1b,8b/B1/B2/B3/B4/B5/B6/B7/B8/E1/E3/E5/E7/Cf,
