&title=ダーリンダンス (柊マグネタイト Remix)
&artist=かいりきベア
&first=0.03
&des=
&wholebpm=153
&des_5=ysl214
&des_6=Aza
&lv_5=12+
&lv_6=13+
&inote_5=(153)
{4},,,,Ch[4:1],,
{16}4xh[16:7]/7x,,,6x,,,5x,,
{4}3-1[8:1]*-7[8:1]/5,3x,8-6[8:1]*-4[8:1],8x,
{8}35,6,7/3,4,
{16}5h[8:3]/6,,,7,,,8,,6xh[8:3]/5,,,4,,,3,,2h[8:3]/1,,,8x,,,7x,,
{16}3v8[8:1],,5,,3/6h[8:1],,,,1h[8:3]/7,,,6,,,5,,
{16}3,4,3,4,3,4,3,4,3xw7[8:1],,,,3b,,,,
{8}1x/5x,2,37,6,
{16}5h[8:3]/4,,,3,,,2,,4xh[8:3]/5,,,6,,,7,,8h[8:3]/4,,,3,,,2,,
{16}1v4[8:1],,8,,1/7h[8:1],,,,
{16}2h[8:3]/5,,,6,,,7,,
{8}81,81,72,72,6-1[8:1]/3-8[8:1],54,6bx/3bx,,
{4}2h[4:1]/7,6,3/5-1[8:1],3,3v8[8:1]/6,6,6q2[8:1]/4,4,
{8}4h[4:1],,5,4,3,2,1-3[8:1]/8-4[8:1],,1x-5[8:1]/8x,,1/7<4[4:1],,
{16}E4,,,E3,,,E2,,
{8}1x,1x,1xh[2:1],,Ch[4:1],,,,7,7,7h[2:1],,Ch[4:1],,,,
{8}56,4,37,8,
{16}1-5[8:1]/2-6[8:1],,,,,,,,
{8}35,4,46,5,3h[4:1],E4,E3,E2,
{8}1xw5[8:1],,1,,
{16}3h[8:3]/E8,,,E7,,,E6,,7xh[8:3]/E4,,,E3,,,E2,,2xh[8:3]/D6,,,D7,,,D8,,
{16}1<6[8:1],,1,,3h[8:1],,,,7h[8:3]/4,,,3,,,2,,
{8}81,81,72,72,6v1[8:1]b/3v8[8:1]b,54,6b/3b,,
{8}7-4[8:1]/2,,1,1,1-5[8:1],,6,,6q2[8:1],,4,,4v7[8:1],,5,,5h[4:1],,4,5,6,7,
{8}1p5[8:1]/8<6[8:1],,1/8-4[8:1],,8/2>5[4:1],,
{16}5,,,6,,,7,,
{8}8x<5[8:1],8x,,,Ch[4:1]/B2/B3/E3,,,,1>4[8:1],1,,,Ch[4:1]/B7/B6/E7,,,,
{8}34,5,26,1,7-3[8:1]/8-4[8:1],,78,,4x/6x,3,35,6,
{16}4h[8:3],,,5,,,6,,
{12}3h[6:1]/7h[6:1],,,37,,,2h[6:1]/6h[6:1],,,26,,,
{4}1>4[8:1]/5<8[8:1],15,A7/B7/Cf/B3/A3,,
{12}6h[6:1]/2h[6:1],,,62,,,7h[6:1]/3h[6:1],,,73,,,
{4}8<5[8:1]/4>1[8:1],84,A2/B2/Cf/B6/A6,,
{12}7h[4:1]/3x,3x,3x,3x,,,2h[4:1]/6x,6x,6x,6x,,,
{4}1v3[8:1]/5v7[8:1],15,A8/B8/Cf/B4/A4/A6/B6/B2/A2,,
{8}3h[8:1]/7,6,5h[8:1]/4,3,
{16}2h[8:3],,,D6/B5/B6,,,D8/B7/B8,,
{16}1h[16:3],,,8,,,2b/7b,,,,1x/E6/B6/A6,,8x/B3/E4/A3,,,,
{8}2-5[8:1],2,7-4[8:1],7,3-8[8:1],3,6-1[8:1],6,
{16}4>1[8:1],,,7xh[16:3],,,,,8<5[8:1],,,3xh[16:3],,,,,
{8}7-4[8:1],7,2-5[8:1],2,6-1[8:1],6,3-8[8:1],3,
{16}5v8<6v1[2:1],,,1x,,,2x-5[8:1],,,,,,,,,,
{8}3-8[8:1],3,7v4[8:1],7,2v5[8:1],2,6-1[8:1],6,
{16}4-2<1[8:1],,,8xh[16:3],,,,,7<6-4[8:1],,,2xh[16:3],,,,,
{8}5xv2[8:1]/3x,4x/6x,,,1-6[8:1]/8-3[8:1],,18,,
{8}4x-2<1[8:1],4x-6<7[8:1],4x,
,,,B7/B2/B6/B3/B4/B5/E5/Cf/E3/E7,,
{8}5x/6x,4,5x/6x,7,
{16}8-4[8:1]/4,,,3,,,2h[4:1],,
{8},8,17,2x,
{16}3-7[8:1],,,6,,,5,,
{8}4x<7[8:1],4x,8>3[8:1],8,6-1[8:1],6,2v5[8:1],2,
{16}7v4[8:1],,,1xh[16:3],,,,,2v5[8:1],,,8xh[16:3],,,,,
{8}4x/6x,7,35,2,
{16}1-5[8:1]/6,,,7,,,8h[4:1],,
{8},2,17,6x,
{16}5-1[8:1],,,2,,,3,,
{8}4>1[8:1],4,8<5[8:1],8,2-6[8:1],2,7-3[8:1],7,
{8}1-3<4[8:1],1-7<6[8:1],1,,,,B6/B3/B7/B2/B1/B8/E1/Cf/E3/E7,,
{4}4h[4:3],5,6,7,8h[4:3],1,2,3,
{4}Chf[4:7]/B4,B3,B2,B1,B8,B7,B6,B5,
{4}4xqq8[2:1],5,6,7,8xv6<7-1>2[2:1],1,2,3,4-8>2-5[2:1],5,6,7,
{8}8x,1x/7x,2x/6x,,1,28,37,,
{4}8qq4[2:1],1,2,3,4x-8>3[2:1],5x,6x,7,8v5V71[2:1],1,2,3,
{8}4x,3x/5x,2x/6x,,5,46,37,,
{4}Cfh[4:3]/1,2,3,4,
{8}3x/5x,4x/6x,3x-8[8:1]/5x-8[8:1],4x/6x,3x/5x,,,,
{8}1bx/7bx,2bx/8bx,1bx-4[8:1]b/7bx-4[8:1]b,2bx/8bx,
{96}1bx/7bx,,,,,,,,,,,,,,,,,,,,,,,,
{4},
{8}2/6h[8:1],3,4h[8:1]/5,6,
{16}7bh[8:3],,,B3/B4/D4,,,B1/B2/D2f,,
{16}8bh[16:3],,,1b,,,2b/7b,,
{8},1bx/D6/B6/B5,8bx/D4/B3/B4,,
{8}2x/5x,3,47,6,35,2,46,7,
{4}3-8[8:1]/8-5[8:1],,1-4[8:1]/6v1[8:1],,
{8}35,4,46,5,34,2,56,7,
{16}8-4[8:1]/4,,,3,,,2-5[8:1],,7xh[4:1],,,,,,,,
{8}46,7,35,2,16,7,38,2,
{16}1-5[8:1],,,8xh[16:3],,,,,7-3[8:1],,,8xh[16:3],,,,,
{8}46,3,35,6,7-4[8:1]/4-1[8:1],,74,,
{8}2>3-5[8:1]b/5-7>8v2[16:5]b,3x/4x,2x/5x,,,,B7/B2/B6/B3/B4/B5/E5/Cf/E3/E7,,
{8}5x/6x,7,34,2,
{16}1q5b[8:1]/5,,,6,,,7h[4:1],,
{8},1,28,7,
{16}6q2b[8:1],,,5,,,4,,
{8}3x>8[8:1],4,5,6,7x<4[8:1],8,1,2,
{16}3v8[8:1],,,4xh[16:3],,,,,6v1[8:1],,,5xh[16:3],,,,,
{8}78,6x,12,3x,
{16}4>1b[8:1]/8,,,7,,,6h[4:1],,
{8},4,35,6,
{16}7<4[8:1]b,,,8,,,1,,
{8}2x/5x,3,47,6,35,2,46,7,
{8}1-3^4b[8:1],1-7^6[8:1]b,1,,,,B6/B3/B7/B2/B1/B8/E1/Cf/E3/E7,,
{4}2-5[8:1]/7-2[8:1],27,1-6[8:1]/4-1[8:1],14,
{8}7bx<6-4b[8:1],4xb-2<1b[8:1],1xbv7b[8:1],,,,C,,
{4}6b/Cf,2b/Cf,3b-8[8:1]/7b-4[8:1],3b/7b,
{8}5h[8:1]/1,2,3h[8:1]/6,7,
{16}8<5[8:1]/E4,,,E3,,,E2,,
{16}1>4[8:1]/E6,,,E7,,,E8,,
{16}8p4[8:1]/E4,,,B2,,,E1,,
{8}1xh[8:1]/5x,6,7h[8:1]/2,3,
{16}4>1[8:1]/8,,,7,,,6,,
{16}8,7,8,7,8,7,8,7,8w4[8:1],,,,8b,,,,
{8}6h[8:1]/2,3,4h[8:1]/5,6,
{16}7<4[8:1]/E3,,,E2,,,E1,,8>3[8:1]/E5,,,E6,,,E7,,
{16}8V64[8:1]/E4,,,E3,,,E2,,
{8}1/5h[8:1],2,3h[8:1]/6,7,
{16}8<5[8:1]/4,,,3,,,2,,
{16}4x,3x,4x,3x,4x,3x,4x,3x,4w8b[8:1],,,,4b,,,,
{4}Ch[4:4],,,,
{16}E7,,,E6,,,E5,,
&inote_6=(153)
{1},{4}3h[8:1]/5h[8:1],4h[8:1]/6h[8:1],{32}A7,E7,B6,B5,{16}E5,2h[16:3],,1,1x,,3x,4,3,5x,4,5,2x,4,2,5,6,7,8x/2x,3,6,4,
{8}5b,2/4,5,2h[8:1]/4,{16}1x-4[8:1],,,E8,,,E7,,1x/2-5[8:1],,,B8,,,B6,,1x-4[8:1]/2,,,B7,,,B5,,6,5,{8}7,4,5/7h[8:1],{16}8x-5[8:1],,,E2,,,E3,,3,4,3,4h[4:1],3,2,1h[4:1],,D4,D5,D6,D7,D8,D1,D2,,3x,4x,{8}2x,5,2h[8:1]/4,{16}1x>4[8:1],,,E8,,,E7,,1x/2>5[8:1],,,B8,,,B6,,1x>4[8:1]/2,,,B7,,,B5,,6,5,{8}7,4,5/7h[8:1],{16}8x<5[8:1],,,1,,,2,,3x,4,2,5x,4,6,3x,4,1,5x,6,7,8/2x,3,7,1,
{4}5hbx[4:7],2h[8:1],3h[8:1],4h[8:1],6h[8:1],4h[8:1],6h[8:1],{8}4h[8:1],6-1b[8:1],,2/6,{16}3,3,4,,2-5-3[16:3],5,,5,{4}2,{8}8,4/6,1,3qq4[4:1]/5pp4[4:1],{2}2/6,
{8}Cf/B1/B7,,4/5-1[8:1],5/6q4[4:1],{2}7,{8},8,1/7-3[8:1],2p4[4:1]/6,{2}3,{8},1,8h[4:1],1,{16}2h[16:3],,,3h[16:3],,,{8}4,5x-2[8:1]/6x,7,5x/8x-4[8:1],7,1x-5[8:1]/8x,2-4[8:1],1bx,2bx,
{16}7-1[8:1],5,{8}6,7-5[8:1],5,{16}7x,,,E4,,,E3/B1,,7h[16:3]/8x,,,B3,,,B5/B6,,7h[16:3]/8x,,,E4,,,E3/B1,,2x-8[8:1],4x,{8}3x,2-4[8:1],4,{16}2,,,E6,,,E7/B8,,2x,1,2,8x,1,8,3x,1,3,8,7,6,5/3x,2,7,1,
{16}8x,8x,8x,8x,{8}1b/7b,1b/7b,{16}2/6h[16:3],,,5h[16:3],,,4,,1x/6h[16:3],,,5h[16:3],,,4,,8x/6h[16:3],,,5h[16:3],,,{4}4-8[8:1],{8}2/4,{16}3,3,1,,7-4-6[16:3],4,,4,{4}7,{16}2,1,2,,7,8,7,,{2}2x>3-5b[8:1]/6xv1b[8:1],{8}B3/B4/B7/B8/E4/E8,2,3pp3[4:1]/5,6<8-2b[4:1],{2}3/5,{8},7,4/6qq6[4:1],3>1-7b[4:1],{2}4/6,{8},5,6h[4:1],5,{16}4h[16:3],,,3h[16:3],,,{8}2,1/8-4[8:1],7,1pp6-1b[8:3]/8,2,{2}1/8,
{12}8/7,8/7,8/7,{4}2bx/6b,{12}3/4,3/4,3/4,{4}2b/6bx,{12}1/5,2,3,4/6,7,8,{4}1-6[8:1]/5-2[8:1],1b/5b,{12}1/2,1/2,1/2,3b/7bx,,,5/6,5/6,5/6,7b/3bx,,,4/8,7,6,3/5,2,1,4-7[8:1]/8-3[8:1],,,4b/8b,,,1/8,1/8,1/8,3bx/7b,,,4/5,4/5,4/5,6b/2bx,,,1/3,8,7,5/6,4,3,{2}2hb[4:1]/4pp7b[4:1],{8}1,6x/8x,7,2x/8x,{16}3h[8:1]/4h[8:1],,,4h[8:1]/5h[8:1],,,5/6,,4/7qq5-8[4:1],,,1,,,3,,,E2/B1,,,{8}Cf/B6/E7,4x,
3b-8[8:1]/5b,5,5/3,5,5/7-3[8:1],6,1<6[8:1]/7,2,{16}1/4v7-5[16:3],,,3,,,2,,4xv1-3[16:3],,,5b,,,{8}6x,2-5[8:1]/7,7,2/7,7,6>3[8:1]/7,8,1/6,2,{16}1b/8b,,,5b/7b,,,3b/4b,,,2,1,,7,8,7,,
{8}4/6-1[8:1],4,4/6,4,4/2-6[8:1],3,2/8>3[8:1],7,{16}8/5qq4[16:3],,,6,,,7,,5xpp6[16:3],,,4b,,,{8}3x,2/4v1[8:1],2,2/4,2,2/8>3[8:1],7<4[8:1],8,7,1x-6[8:1],1x-4[8:1],1,1,{8}5hb[4:1],B4/B5,B1/B8,C,
1/4h[8:1],2,3h[8:1]/7,6v3<5[4:1],{16}4/5,,,1,,,{8}1,5h[8:1]/8,7,6h[8:1]/2,3v8>2[4:1],{16}4/5,,,6,,,{8}6,4>1[8:1]/7,5,4/7-3[8:1],6,7/8<5[8:1],1,2/8,1,{16}3h[8:1]/4h[8:1],,,2/5,,,7x,,5h[8:1]/6h[8:1],,,4b/7b,,,{8}2,3h[8:1]/8,7,6h[8:1]/2,1q5>3[4:1],{16}7/8,,,6,,,{8}6,1/6h[8:1],2,3h[8:1]/7,8p4<6[4:1],1/2,{16},3,,,{8}3,2/5<8[8:1],4,2-6[8:1]/5,3,1>4[8:1]/2,8,1/7,8,3/7,2/6,1bxV35b[4:1]/5bxV71b[4:1],3bx/7bx,{4}1bx-5[8:1]/5bx-1[8:1],Cf,
{16}3,4,3,4,3,4,3,4,3,4,3,4,3,4,3,4,3,4,3,4,3,4,3,4,3,4,3,4,3,4,3,4,3,4,3,4,3,4,3,4,3,4,3,4,3,4,3,4,3,4,3,4,3,4,3,4,3x,4x,3x,4x,{4}Cf,
{2}5p4b[4:1],5xp4[4:1],6p4b[4:1],6xp4[4:1],7p4b[4:1],7xp4[4:1],{8}8,8,1b/7b,,1,1,2b/8b,,{4}4q5b[4:1],4,4xq5[4:1],4,3q5b[4:1],3,3xq5[4:1],3,{8}2bq5[8:3],2,2,2,2,2,2,2,{16}1bx,8,2,7,1bx,8,2,7,{32}1bx,2,3,4,5,6,7,8,1,2,3,4,5,6,7,8,
{4}1bx/5bxs1[16:3],5/2V48[4:1],{8}2,7,6,5,1/4,2/3,1/4,2/3,1b-5[8:1]/4b,,,,6/7,5/8,6/7,5/8,6b-3[8:1]/7b-2[8:1],,6x/7x,,1,8,7qq5[8:1]/1,6,2/7,{16},3,,,4,,1b/2b,,,6b/8b,,,4hb[8:3]/5b,,,Chf[16:3],,,{4},1h[4:5]/2h[4:3],,,,7hb[2:1],,8-4[8:1],1w5[8:1]/8,
{32}1b,B1,Cf,B4/B6`B5,{8},{4}2-4[8:1]*-8[8:1],2b-6[8:1],{8}5<1[4:1]/2,5x,{16}1,,,C,,,5-3b[8:1]*-7b[8:1],,{8},,,8x,
1>4[8:1]/6,6,1/6,6,5-1[8:1]/6,7,5/8,7,2/6qq7[16:3],{16},1,,,{8}8,8-3b[8:1]*-5b[8:1],{16},8b,{4},{8}4v1[8:1]/6,6,4/6,6,2>5[8:1],8<5[8:1],2bx-6[8:1],8bx,2,7-4b[8:1],1-4b[8:1],7bx,1bx,E8/B7,E3/B3,C,2/5h[8:1],3,4h[8:1]/7,6V84[4:1],3/5,{16},1,,,1,,{8}2h[8:1]/5,6,4/7h[8:1],3V15[4:1],1/5,{16},8,,,{8}8,
4/7-3[8:1],6,4<7[8:1]/7,5,2-5[8:1]/4,1,2/8,7,{16}1h[8:1]/6h[8:1],,,2b/5b,,,2x,,3h[8:1]/8h[8:1],,,4b/7b,,,{8}5/6,7h[8:1]/8,1,2h[8:1]/4,5-1<6[4:1],3/6,{16},4,,,{8}4,2h[8:1]/1,8,7h[8:1]/5,4-8>3[4:1],3/6,{16},5,,,{8}5,
4-8[8:1]/7,7,7/4,7,1<6[8:1]/7,2,1/3,4-2[8:1],5b-7[8:1],4b-8b[8:1],5b-1b[8:1],4b,{4}5b,Cf,{1}2h[4:3]/7>8v2>3V57b[2:1],{8}1bx,2bx/8bx,3bx/7bx,4bx/6bx,{4}5bxpp5[4:1],5xqq5[4:1],B6,B4,{4}2q6b[8:1]/6q2b[8:1],Cf,
{8}4/8,7,4h[4:1]/8,7,3x>8[8:1],{16},E5,,,{8}E7,3/4x>1[8:1],{16},B5,,,{8}B7,3x>8[8:1]/4,{16},E5,,,{8}E7,{16}1,5,{8}2,1/5h[4:1],2,6x<1[8:1],{16},E5,,,{8}E3,{16}2,1,2,1h[4:1],2,3,4h[4:1],,D1,D8,D7,D6,D5,D4,D3,,1,5,{8}2,1/5h[4:1],2,6x-1[8:1],{16},E5,,,{8}E3,5x-8[8:1]/6,{16},B4,,,{8}B2,5/6x-1[8:1],{16},E5,,,{8}E3,{16}
8,4,{8}7,4h[4:1]/8,7,3x-8[8:1],{16},E5,,,{8}E7,{16}7,1,7,1h[4:1],7,6,5h[4:1],,E1,E2,E3,E4,E5,E6,E7,E8,{1}Ch[1:1]/E1,{16}A4,,,D5,,,A5,
