&title=轆轤首
&artist=かねこちはる
&first=0.03
&des=
&des_5=GC VS. Swear
&lv_5=14
&inote_5=(218){4},,,,{1}1x/8x<1[4:7],
B6/E7/B7,
8<1[4:7],
B1/E1/B8,
8<1[4:7],
B2/E3/B3,
8<5[2:1],
{8}3,4,5,6,3,4,5,6,
E4,E5,E6,A3,A4,A5,{4}A6,
4/7v1<4[2:3],4,3,3,
2,2,1,1,
5/2v8>5b[2:3],5,6,6,
7,7,8,8,
{8}1,1,2,2,3,3,4,4,
5,5,6,6,7,7,8,8,
{16}2,1,{8}2,{16}7,8,{8}7,{16}2,1,{8}3,{16}7,8,{8}6,
{16}2,3,4,5,6,7,8,1,{4}2w6[8:1],2bx,
8-4[8:1],8/B2/B3,1-3[8:1],1/B4/E5,
8-4[8:1],8>3[8:1],8<5[8:1],8,
2-6[8:1],7/2,8-4[8:1],8/3,
2-5[8:1]*-7[8:1],,84,26,
1-5[8:1],1/B7/B6,8-6[8:1],8/B5/E5,
1-5[8:1],1<6[8:1],1>4[8:1],1,
7-3[8:1],2/7,1-5[8:1],1/6,
7-4[8:1]*-2[8:1],,15,73,
1-3[8:1],5/1-7[8:1],5/1-5[8:1],5/1,
7-1[8:1],3/7-5[8:1],3/7-3[8:1],3/7,
2-5[8:1],6/2-8[8:1],6/2-4[8:1],6/2,
5v8[8:1]*v2[8:1],,7b/1b,{24}1/7,2/6,3/5,4,,,{4}8-6[8:1],
4/8-2[8:1],4/8-4[8:1],4/8,
2-8[8:1],6/2-4[8:1],6/2-6[8:1],6/2,
7-4[8:1],3/7-1[8:1],3/7-5[8:1],3/7,
4>2[8:1]*<6[8:1],,{16}8/1,7,6,5,4,3,2,1,
3h[8:1]/8h[8:1],,,7h[8:1]/2h[8:1],,,{8}1b/C,{16},,6,7,8h[8:1]/2h[8:1],,,1h[8:1]/3h[8:1],
,,{8}4b/C,,{16}8,7,6,5,4,3,2,1,8,7,
{16}1/6,2,3,4,5,6,7,8,1/5,4,
{16}3,2,1,8,7,6,51,2,3,4,7,6,5,4,1,2,3,4,5,6,7,8,
6h[8:1]/1h[8:1],,,2h[8:1]/7h[8:1],,,{8}8b/C,{16},,3,2,1h[8:1]/7h[8:1],,,8h[8:1]/6h[8:1],
,,{8}5b/C,,{16}1,2,3,4,5,6,7,8,1,2,
{16}8/3,7,6,5,4,3,2,1,8/4,5,
{16}6,7,8,1,2,3,48,7,6,5,2,3,4,5,8,7,6,5,4,3,2,1,
{1}8xh[2:3]/4xh[2:3],
{4},,,,2>5[8:1],
2/8,{8}7<4[8:1],8,{4}7/1,
{8}2>5[8:1],1,{4}2/8,{8}7-4[8:1]*-5[8:1],7,{4},
3>8[8:1],3/7,{8}6<1[8:1],4,{4}6/2,
{8}3>8[8:1],5,{4}3/7,{8}6-1[8:1]*-8[8:1],6,{4},
2-5[8:1],
2/8,{8}7-4[8:1],8,{4}7/1,
{8}2-5[8:1],1,{4}2/8,{8}7<4[8:1]*>1[8:1],7,{4},
3-8[8:1],3/7,{8}6-1[8:1],4,{4}6/2,
{8}3,4,5,6,7h[4:1]/3h[4:1],,,,
{4}7b-4[8:1]/3b-7[8:1],3/7,6-2[8:1]/2-5[8:1],2/6,
8-4[8:1]/3-8[8:1],8/3,1-5[8:1]/6-1[8:1],6/1,
7-3[8:1]/3-7[8:1],3/7,{12}6/4,5,4,3/5,,,{4}7b/6b,
2b/3b,5bx-8[8:1]/4bx-1[8:1],4b/5b,
{8}3/6,5/4,{4}7-4[8:1]/2-5[8:1],7/2,{12}8,8,1,
{4}7/2,3/4,6-2[8:1]/5-1[8:1],5/6,
7/4,{12}3/5,4,5,{8}6/4,2/8,{4}3/7,
6b/5b-8b[8:1],5b/7b,2b/1b-4b[8:1],1b/3b,
{2}Ch[4:1],{8}8bx-4b[8:1],8bx,{4}8bx/2bx-6b[8:1],
2bx/5bx,{16}7bx/8bx,,7bx/8bx,6bx/1bx,{4}2bx/5bx,3bx/4bx,
{8}3bx/8bx,{16}6bx,5bx,{8}6bx<6b[2:1],4bx/7bx,,,,,{4}3xh[4:3],
{16}E5,E4,E3,E2,E1,E8,E7,E6,{4}E5,
{16}1bx/8bx,,3bx,4bx,3bx,,6bx,5bx,{12}7bxh,8bxh,1bxh,{16}2bxh,,
5bx,4bx,{8}5bx,,D4/E4,D8/E8,E2/D2,D6/E6,D3/E3,D7/E7,
{8}4/5,4/5,3/6,3/6,{16}2,7,2,7,1<2b[8:5],8,1,8,
{4}1b,,,8-4b[8:1],
{64}8bq2<7V13[4:27]/4bq6>3V57[4:27],Cf,{1},,,,,,,{32},,,,,,,{16},,5h[8:2]/4h[8:2],,,,,,,,,{32},,{4}3h[4:1],
{8}4,3h[4:1],,4,{4}5/3,
6h[4:1],{8}5,6h[4:1],,5,{4}4/6,
3h[4:1],{8}4,2h[4:1],,4,{4}5/2,
6h[4:1],{8}5,7h[4:1],,5,{4}4/7,
{8}3/5,2,3,6/4,7,6,5/2,4/6,
{2}1h[2:1]/Cf,{16}5,6/2,3/7,4/8,{4}1pp8[1:2]/5pp4[1:4],
{1}5b/1b,
{2},,,,,,E3fh[1:3],
E7fh[8:21],
B3fh[4:9],B6fh[8:15],
{1}Cfh[2:3],
{4},,,,7b/1b-5[8:1]*-6[8:1],
1,{8}8-4[8:1],4-7[8:1],8,3,
{4}2b-5[8:1]*-6[8:1],2,{8}3/7-4[8:1],4-8[8:1],7,2,
{4}1b>2>4[8:1]*q5[8:1],1b,7b<4[8:1]*p3[8:1],7b,
2<7-1-3[8:3],{8}4,5,{4}6,4/7,
2b/8b-4[8:1]*-3[8:1],8,{8}6/1-5[8:1],5-2[8:1],1,6,
{4}7b-4[8:1]*-3[8:1],7,{8}6/2-5[8:1],5-1[8:1],2,7,
{4}8b<5[8:1]*p4[8:1],8b,2b>5[8:1]*q6[8:1],2b,
7>2-8-6[8:3],{8}5,4,{4}3,5/2,
2b-5[8:1]/6b-1[8:1],2/6,{8}3/8-4[8:1],7/4-7[8:1],8/3,2,
{4}1b-6[8:1]*-4[8:1],1,{8}3/7-4[8:1],6/4-8[8:1],7/3,2,
{4}1w5[8:1],1b,8w4[8:1],8b,
6/2<7-1-3[8:3],{8}3,4,5w1[8:1],6,{4}5,
7b-4[8:1]/3b-8[8:1],7/3,{8}5/1-5[8:1],7-3[8:1],1,7,
{4}2b-7[8:1]*-5[8:1],2,{8}4/8-4[8:1],2-6[8:1],8,2,
{4}5bw1[8:1],5b,4bw8[8:1],4b,
{16}2/6,3,4,5,6,7,8,1,7/2,6,5,4,3,2,1,8,
{4}7<3[4:1],3>7[4:1],7<3[4:1],3V17[4:1],
7V53[4:1],3V17[4:1],7V53[4:1],3,
{8}1,1,3,3,5,5,{16}4/6,3,2,1,
{4}8/5>2[8:1],{8}5,8-4-7[4:1]*-4-1[4:1],,8b,,,{4}2>6b[4:1],
6<2b[4:1],2>6b[4:1],6V82b[4:1],
2V46b[4:1],6V82b[4:1],2V46b[4:1],6,
{8}8,8,6,6,4,4,{4}5/3,
{16}7,6,5,4,7,6,5,4,8,7,6,5,8,7,6,5,
{8}4/1b-6[8:1],1,2-5[8:1],2,8-4[8:1],8,1-5[8:1],1,
7<4[8:1],7,8-4[8:1],8,6-3[8:1],6,2-7[8:1],2,
5<8[8:1],5,3-7[8:1],3,6-2[8:1],6,4>1[8:1],4,
{16}8,7,6,5,4,3,2,1,8/4,7/3,2/6,5/1,{4}4b/8b,
{8}7/3b-5[8:1],3,2-6[8:1],2,1-5[8:1],1,8-4[8:1],8,
7b-3[8:1],7,6-4[8:1],6,1-5[8:1],1,6,6,
{16}7,8,7,8,6,1,6,1,5,2,5,2,4,3,4,3,
5bx,6,7,8,1,2,3,4,5,6,7,8,1,2,3,4,
5x/1x,8,7,6,5,4,3,2,1b/5b,6/2,7/3,8/4,{4}5/1,
{16}2>5[8:1],,,1,{8}2,8,7,6,{16}5<8[8:1],,,4,
{8}5,3,2,1,{16}8>3[8:1],,,7,{8}8,6,
{16}5b,4,3,2,1,8,7,6,3/5,2,1,8,7,6,5,4,
3/D7/E7,D8/E8,E1/D1,E2/D2,E3/D3,E4/D4,E5/D5,E6/D6,1,2,3,4,5>1<5<5[2:5],6,7,8,
{1}5b/1,
,,{16}3b,
4,2,5,8,7,1,6,2b,1,3,8,5,6,4,7,
{32}1b,2,3,4,5,6,7,8,1b,2,3,4,5,6,7,8,{4}1bw5[8:1],1b,
{1}3b/7b,
E
