&title=星間飛行
&artist=中岛爱
&first=1.82
&lv_5=13
&des=moo
&inote_5=(131.035)
{8}8b/4b,,56,,5/4h[8:1],7h[8:1],5,2h[4:1]/4h[4:1],
{8},,65,84,,42,,5b/7bs3[4:1],
{8},,,,1h[8:1],3h[8:1],2,34,
{8},65,4b/8b,,34,5b/1b>7[1:1],,,
{4}8bq1[8:5],,,,
{8},8b/1b,{4}3b/7b-4[8:1],7bv1[8:1]/4bv1[8:1],,
{4}6/5h[4:1],4,3/4h[4:1],5,
{4}7/5h[4:1],4,24,{8}75,6,
{8}1/4-2[8:1],,84,,8/5-7[8:1],,15,3,
{8}1/4-1[8:1],,84,6,8/5-8[8:1]*-2[8:1],,5,,
{8}1,2,3/4h[4:1],,8,7,6/5h[4:1],,
{8}1,2,3/4h[4:1],,8,7,5/6h[4:1],,
{8}2-6[8:1],,4-7[8:1],,8-3[8:1],,7,7-5[12:1],
{8},4-2[12:1]*-8[8:1],2,4,,5/1h[8:1],{16}4,3,5,,
{8}4>1[8:1],,7/4<7[8:1],,8qq1[4:1],,2,2>8[16:5],
{8},3,,1p4[8:1]*q5[8:1],,,,5pp4[4:1],
{8},4,3,2,1pp1[4:1],5,7,8qq8[4:1],
{8},1,3,4,8b,8b-4[8:1],,1>7[4:1],
{8},,8p2[16:3],,5,,1,1-5[8:1],
{8},4,6,8,5<3[4:1],,4h[4:1],,
{8},45,6,75,8,1,24,7b,
{8},8b/1b,6b/2b-5[12:1],,2bV48[6:1]/5bV38[6:1],,,,
{4}1>4[8:1],5-1[8:1],8<5[8:1],4pp2[24:7],
{8}1h[8:2],,,8,3>8[8:1]/7<4[8:1],,,,
{8}1>4[8:1],2,1-5[8:1],,6p4[4:1],7,3,,
{8}1h[8:1],3,8h[8:1],5,37,26,5b/1b-5[8:1],,
{8}8<5[8:1],,4-8[8:1],,1>4[8:1],,5qq7[4:1],,
{8}8h[8:2],{16},,,,1,7,{8}2/6v8[16:2],,1-5[8:1],,
{8}4>1[8:1],3,7<4[8:1],,8-4[8:1],2,3>8[8:1],,
{8}5-1[8:1],7,8<5[8:1],,8>3[8:1],2,4-7[8:1]*-1[8:1],,
{16},,,,62,,,5,3,,4,,5/6h[4:1],,,,
{16}1,8,2,,73,,4,6,5,,5,7,4,6,3,5,
{4}2-6[8:1],8-5[8:1],7-3[8:1],4<3[4:1],
{8}2h[4:1],{16},,,,4,1,{8}6/3v1[16:2],,8-4[8:1],,
{8}5<8[8:1],6,2>5[8:1],,1-5[8:1],7,6<1[8:1],,
{8}4-8[8:1],2,1>4[8:1],,1<6[8:1],7,5-2[8:1]*-8[8:1],,
{16},,,,73,,,4,6,,5,,4/3h[4:1],,,,
{16}8,1,7,,6h[16:2]/2,,1,7,3,,7,4,8,3,7,2,
{8}6<1[8:1],,5,5q3[16:3],,4,,2,
{8}41,3,58,7,41,3,85,7,
{1}5bpp4[16:9]/1bpp1[16:9],
{128},,,
(130.7){8}1b/5b,,43,,4/5h[8:1],2h[8:1],4,7h[4:1]/5h[4:1],
{8},,34,15,,57,,4b/2bz6[4:1],
{8},7,7,,8h[8:1],6h[8:1],7,65,
{8},34,{4}5b/1b,8b/4b,5b/1b,
(126){4}7-3[8:1]/3,5-2[8:1]/7,51,{8}7,
(106){4}7-3[12:1],
(91){4}1w5[12:1]/7,1>8[12:10]*<2[12:10],
E
