&title=夢飼い日和
&artist=西沢はぐみ
&first=0
&des=Kondou
&wholebpm=135.000
&clock_count=4
&lv_5=12+
&des_5=
&inote_5=(135)
{16},,,,
,,,,
,,,,
,,,,
{16}3qq4[8:9],,,,
,,,,
,,,,
,,6h[8:7],,
{16},,,,
,,,,
,,,,
,,,,
{16}5pp1[8:9],,,,
,,,,
,,,,
,,1,,
{16},,,,
,,4h[8:3],,
,,,,
5,,,,
{16}63,,,,
4,,5h[8:2],,
,,3,,
,,14,,
{16},,2,,
6,,5/4h[8:2],,
,,6,,
6,,5,,
{16}7<2[8:6],,,,
,,2,,
,,1,,
,,8p1[8:6],,
{16},,,,
,,4,,
,,5,,
,,6,,
{16}6p3[8:6],,,,
,,,,
,,,,
{48},,,,,,,,,,,D1h[48:25],
{16},,,,
,,,,
(140)
{16},,,,
,,,,
E7/B7/B6/Cf/B2/B3/E3,,,,
,,,,
{16},,5,,
,,6,,
,,7,,
,,8,,
{16},,3,,
4,,2,,
6h[8:2],,,,
3,,2h[8:2],,
{16},,4,,
5h[8:2],,,,
1,,7,,
3,,4h[8:2],,
{16},,3,,
2-5[8:1]/6-1[8:1],,,,
6b/2b,,,,
8,,7-4[8:1],,
{16},,8-3[8:1],,
,,5^8[8:1],,
,,1w5[8:1],,
,,1b,,
{16},,3x,,
,2x/4x,,,
1^6[8:1]/5,,,,
4,,4-8[8:1],,
{16},,34,,
,,7/2-6[8:1],,
,,12,,
,,7V58[8:2]/5,,
{16},,4,,
2,,,,
4,,3h[8:2]/5,,
,,1h[8:2],,
{16},,5,,
6,,7V53[16:5]/3V17[16:5],,
,,,,
,,,,
{16},,B5h[8:3],,
,,1x,,
1x,,,,
,,2,,
{16},,,,
,,3h[8:7],,
,,,,
,,E1,,
{16},,,,
,,,,
8,,,,
,,7,,
{16},,,,
,,6h[8:7],,
,,,,
,,E1h[8:3],,
{16},,,,
,,,,
25,,25,,
,,3h[8:4],,
{16},,,,
,,4h[8:4],,
,,,,
,,5h[8:3],,
{16},,,,
E8,,,,
74,,74,,
,,6h[8:4],,
{16},,,,
,,5h[8:4],,
,,,,
,,4^7[8:1],,
{16},,3,,
1-5[8:1],,,,
1b/8b,,,,
6,,6,5h[16:3],
{16},,1,,
8/4^1[8:1],,,,
6,,,,
78,,7,1h[16:3],
{16},,5,,
6/2-5[8:1],,,,
12,,8,,
7,,6,1h[16:3],
{16},,4,,
5pp4[8:2]/2,,,,
B4/B3/E4,,,,
2,,2,4,
{16},4,3,,
6xh[8:1]/2xh[8:1],,,,
8b^5[8:1]/4b,,8,,
2,,3,3h[16:3],
{16},,4,,
15,,6,,
7/4^1[8:1],,4,,
8,,7,7h[16:3],
{16},,8,,
1/5,,2,,
4/3-8[8:1],,3,,
4-7[8:1],,4,,
{16}2-5[8:1],,2,,
8,,1h[8:3],,
,,5,,
3h[8:2],,4,,
{16}6h[8:2],,5,,
2h[8:2],,4,,
7bh[8:2],,,,
{24}5x,4x,3x,2x,1x,8x,
{16}B6h[8:2],,,,
{24}2,,,2,3,4,
{16}5b^2[8:1]/8b^5[8:1],,,,
8/5-1[8:1],,,,
{16}2,,4,,
8,,6/2pp1[8:2],,
,,2/1<2b[16:5],,
7,,5b,,
{16},,,,
8,,7,,
6/5-8[8:1],,3,,
54,,2,,
{16}3/4-1[8:1],,6,,
45,,7h[8:2],,
,,8,,
6^3[8:1]/2,,,,
{16},,2,,
1,,82,,
7-4[8:1]/3v8[8:1],,,,
73,,,,
{16}2-5[8:1]/6,,2,,
1,,8^5[8:1],,
,,48,,
2,,8bpp7b[8:2]/4bx,,
{16},,,,
6,,5,,
5,,E3f/B2/B3,,
8,,8-5[8:1]/1,,
{16},,2,,
3,,4V26[8:2],,
,,7,,
7,,,,
{16}85,,7,,
63,,2,,
1bh[8:4]/4b,,,,
E8/B8,,,,
{16}4h[8:4],,,,
E6/B5,,,,
8h[8:4],,,,
E7/B7,,,,
{16}5h[8:4],,,,
E3/B2,,,,
4^1[8:1],,,,
B8/B1,,,,
{16}6-3[8:1],,6,,
B8/B1,,,,
2^5[8:1],,,,
B6/B7,,,,
{16}8-4[8:1],,8,,
B2/B3,,,,
1b>6[8:2],,,,
7,,8,,
{16}1-5[8:1],,,,
2,,2q6[8:1],,
,,2/7pp4[16:5],,
,,A3f/D3/D4/7b,,
{16},,,,
1,,,,
6-2[8:1]/2,,,,
64,,5-8[8:1],,
{16},,7<2[16:3]/5,,
,,7/1,,
,,8,,
7b/1b,,B2h[8:1],,
{16}B6h[8:1],,B4h[8:1],,
B8,,1bs5^4z8b[8:13],,
,,,,
,,,,
{16},,,,
,,,,
{8}
