&title=Owari to Hajimari no Oto
&artist=梅干茶漬け
&first=1.221
&des=ccy
&lv_5=14
&inote_5=(201)
{4}2xh[4:3],4,5,6,7xh[4:3],8-2v1-3[8:3],,,
6xh[4:3],4,3,2,1xh[4:1],8-6v7-5[8:3],4xh[4:1],,
2xh[4:3],4,5,6xh[4:1],5xh[4:1],7-1v8-2[8:3],4xh[4:1],,
3xh[4:1],4,7xh[4:1],8,2xh[4:1],1-7v8-6[8:3],5xh[4:1],,
{8}3b/4b,2,5,2,5,2,1-4[8:1],,1/2-5[8:1],,6-8v7-1[8:3],,2hx[4:1],,,,
6/5,7,4,7,4,7,8-5[8:1],,8/7-4[8:1],,3-1v2-8[8:3],,7hx[4:1],,,,
3x/5x,3,3/1b,,6/4,6,6/8b,,1x/7x,1,1b,8x/2x,8,8,7b-1[8:1]/3b-1[8:1],,
3x-5b[8:1]/7x-5b[8:1],,,,{16}2,8,2,8,1V35v2V46[8:6],7,1,7,
{8}1b,,,,Ch[4:1],,,,
,D4,B4,,E3,,C,,D2,,,A7,A1,B6,B2,E5,
E4,,,D6,B5,,,,A1,,E8,,E3,,E6,,
E5,,,D4,B4,,,,A8,,E2,,E7,,E4,,
E5,,,D6,B5,,,,Ch[4:3],,,,,,,,
7,4x,4x,7,3x,,7/2x,,
7/1x,,,7,5x,,7,,
2/8x,,,2,,,2,{16}6x,5x,
{8}2/4x,,,2/4x,5x,6x,2/7x,1x,
6/8x,,,{16}6/1x,2x,3x,,{8},6,,
6/4x,,3x,6,2x,,6/1x,,
3/8x,,,3,,,3,,
3/5,,3/5,,1x-4b[8:1]/7x-4b[8:1],3x/5x,1b/7b,,
2/5,5,3,4,3,4,1/5,1,6,4,3/7v6[8:1],,1v2[8:1],,8-4b[8:1],,
1,1,7,8,1/6,6,4,5,6/2v3[8:1],,8v7[8:1],,1-5b[8:1],,8-6-4v7-5-3[4:3],,
3,,E4/B3,,B8/E8,,1-3-5v2-4-6[4:3],,6,,E6/B6,,B1/E2,,
8-4b[8:1],,8,,3h[16:1]/5h[16:1],,2h[16:1]/6h[16:1],,1h[16:1]/7h[16:1],,
{16}2,8,2,8,3,7,3,7,4,6,4,6,3,5,3,5,
1,,1,,1/8-3-7[4:1],,8,,8/2,,,,1,2,3,4,
5/6,,,3,4V26[4:1],,1/8,,6-1[8:1]/4,,,,7,,,,
5xh[32:1],2xh[32:1],5xh[32:1],2xh[32:1],5b,,,,4xh[32:1],7xh[32:1],4xh[32:1],7xh[32:1],4b,,,,
6xh[32:1],8xh[32:1],6xh[32:1],8xh[32:1],6b,,,,3xh[32:1],1xh[32:1],3xh[32:1],1xh[32:1],3b,,,,
4/5,,4/5,,4/5,,4/5,,3,6,2,7,1,8,2,7,
3,6,4,5,4,3,2,1,7,6,5,4,1,2,3,4,
8,,8/1,,8/1,,8/1,,8/1,,8-4b[8:1]/1-5b[8:1],,,,
8b-6v7-5[8:5]/1b-3v2-4[8:5],,,,,,,,,,,,,,,,,,
1V74[4:1]/2,,,,1/3,,3,2,1x,,5x-7v6-8[8:3],,,,5/1,,2,,3,,4,,5-3v4-2[8:3],,,,5/1,,8,,7,,
6V47[4:1],,,,6/1,,1,2,3xV17[4:1],,8x,,3/7V53[4:1],,,,3V15[4:1],,,,7,,7v6[8:1],,,,1v2[8:1],,,,8,,
8-4b[8:1],,,,8/1,,1,2,3-1[8:1],,5-7[8:1],,3,,5,,8-4[8:1],,7,6,5x,,,,5/2,,3,,4/6,,7,,
8/2bV46[8:1],,,,E8f/B7/B8,,,,1bV35[8:1],,,,E7f/B6/B7,,,,8bV24[8:1],,,,E6f/B5/B6,,,,7bV13[8:1],,,,E5f/B4/B5,,,,
6/8,,8,7,,7,1h[4:1],,3,,4,,5/2,,6,,7/5,,5,6,,6,4h[4:1],,2,,1,,8/3,,7,,6/8,,8,7,,7,1h[4:1],,3,,4,,5/2,,6,,
{32}7h[4:1]/5,4,3,2,1xh[4:1],,,,{16},,8,2,7,3,7,3,6,4,6,4,
{16}5,,5,4,,4,6h[4:1],,8,,1,,2/5,,3,,4/6,,7/8,,3/5,,1-5b[8:1]/2-6b[8:1],,,,1b/2b,,,,3,4,
2,,2,,2/8,,6,5,7,,7,,1/7,,8/2,,3,4,3,4,1,8,1,8,5,6,5,6,2,7,2,7,
Chf[1:1],,,,E1,,,,,,,,E5,,,,B6/B7/E7,,,B2/B3/E3,,,8/1,,7-5b[8:1]/2-4b[8:1],,,,7b/2b,,,,
1,8,1,8,2h[32:1],,7,8,7,8,6h[32:1],,3,4,2,5,3-1[8:1],4,3,4,3,,,,8,7,6,5,2,3,4,5,
8h[32:1],1,7,1,7,,2h[32:1],1,3,1,3,,6,5,7,4,6,5,6,5,8-4b[8:1],4,8,4,8,,,,2,5,3,4,
1,2,3,4,5/1x,6,7,8,{32}1/5xV31[8:1],6x,7xh[16:5],,,,,,5b,,,,,,,,
{16}8,7,6,5,4/8x,3,2,1,{32}8/4xV68[8:1],3x,2xh[16:5],,,,,,4b,,,,,,,,
{8}1-4[8:1],8,7,6-1[8:1],5,4,3-6[8:1],2,1,8-3[8:1],7,6,{16}5b,4,5b,4,5b,4,5b,4,
7,8,6,1,7,8,6,1,7,6,5,4,1,2,3,4,
1h[32:1],,2h[32:1]/8h[32:1],,3h[32:1]/7h[32:1],,4h[32:1]/6h[32:1],,7h[8:1],,4,6h[8:1],,3,5h[8:1],,
2,1,3,8,2,1,3,8,2,3,4,5,8,7,6,5,
8h[32:1],,7h[32:1]/1h[32:1],,{32}2x,3x,4x,5x,6x,7x,8x,1x,{16}2x-7b[8:1]/6-3b[8:1],,,,2b/6b,,,,
1/5,,3,4,3,,8/4,,6,5,6,,3,4,2,5,8,7,8,7,1,6,1,6,2,5,2,5,3,4,3,4,
1,,1/8,,1/8,,1/8,,1/8,,1-5b[8:1]/8-4b[8:1],,,,
1b-3v2-4[8:5]/8b-6v7-5[8:5],,,,,,,,,,,,,,,,,,
{4}1xh[2:1],,B2/B3,,6xh[2:1],,B7/B8,,3xh[2:1],,B1/B2,,8xh[2:1],,B6/B7,,
4xh[2:1],,B3/B2,,7xh[2:1],,B6/B5,,2xh[2:1],,B4/B3,,5h[4:1],3h[4:1],7h[4:1],1h[4:1],
{8}8b-6v1-7-5[2:1],,,2,2x,,3,,3-1v4-2-8[2:1],4,4,,5x,,6,6,
6-4v7-5-3[2:1],,,2,2x,,1s5[4:1]*z5[4:1],,
1b,,,{16}6,4,7,6,5,4,1,2,3,4,
{16}8bh[8:1],,,1h[8:1]/7h[8:1],,,2/6,,5,,4,,3/8,,2,,1/7,,6/5,,2/8,,4-8b[8:1]/3-7b[8:1],,,,4b/3b,,,,2,1,
3,,3,,3/5,,7,8,6,,6,,4/6,,5/3,,2,8,2,8,2,8,2,8,1b-5b[16:1],,,1b,,,3b/7b,,
2v5b[8:1]/8v5b[8:1],,,,2b/8b,,,,8x,,4x-2v3-1[8:3],,,,4/8,,7,,6,,5,,4-6v5-7[8:3],,,,4/8,,1,,2,,
3V52[4:1],,,,3/8,,8,7,6xV82[4:1],,1x,,6/2V46[4:1],,,,6V84[4:1],,,,2,,2v3[8:1],,,,8v7[8:1],,,,1,,
1-5b[8:1],,,,1/8,,8,7,6-8[8:1],,4-2[8:1],,6,,4,,1-5[8:1],,2,3,4x,,,,4/7,,6,,5/3,,2,,
1/7bV53b[8:1],,,,E2f/B2/B1,,,,8bV64b[8:1],,,,E3f/B3/B2,,,,1bV75b[8:1],,,,E4f/B4/B3,,,,2bV86b[8:1],,,,E5f/B5/B4,,,,
3/1,,1,2,,2,8h[4:1],,6,5,4,3,8,7,6,5,2/4,,4,3,,3,5h[4:1],,7,8,1,2,5,6,7,8,3/1,,1,2,,2,8h[4:1],,6,5,4,3,8,7,6,5,
{32}2x,3x,4x,5x,6x,7x,8x,1x,{16}2x,,7,1,6,2,6,2,5,3,5,3,
{16}4,,4,3,,3,5h[4:1],,7,,8,,1/4,,2,,3/5,,4/7,,1/5,,8-4b[8:1]/2-6b[8:1],,,,8b/2b,,,,3,5,
1,,1,,1/7,,6,4,8,,8,,8/2,,7/1,,3,4,3,4,8,7,8,7,{32}1b,2,3,4,5,6,7,8,1b,2,3,4,5,6,7,8,
1b/Ch[1:1],
