&title=太陽と向日葵
&artist=FLOWER
&first=2.542
&des=ccy
&lv_5=13
&inote_5=(91)
{64}2,3,4h[64:10],,{16},,,,,6,,6h[16:4],,,,4,,3,,
2h[16:3],,4,5,,,6,5,7h[16:3],,5,4,,,1,,
{64}7,6,5h[64:10],,{16},,,,,3,,3h[16:3],,,5,,,6,,
7h[16:3],,5,4,,,3,4[8:1],2h[16:3],,,7,1>4[8:1],,8,,
1bp8[4:1]/6,,5,5,1,,,,4,4,3,3,8<5[8:1],,2,,
8bq1[4:1]/3,,4,4,8,,,,5,5,6,6,8>3[8:1],,7p5[4:1],,
8,,7,,1<6[8:1],,2q4[4:1],,1,,2,,7b,,,,
5/6,,7,8,,4,3,,2/5,,6,7/4,,3,7,1,
8-4[8:1],,,3,3-1[8:1],,2,,,6,6,,7b/8b,,,,
1-5[8:1],1,,6,6-8[8:1],,7,,3,3,3,3,2b/1b-5[8:1],,,,
1>4[8:1]/8,,7,7,1pp3[8:1],6,6,6,,8,8,,2b/1b-5[8:1],,8,,
1<6[8:1]/2,,3,3,1qq7[8:1],4,,5,,4,4,,8b/1bpp3[8:1],,2,8,
1qq7[8:1],,6,,1-5[8:1],,4,4,,6,6,,8bp4[8:1]/7b,,2/1,,
8b/1<6[8:1],,,,1b/2p6[8:1],,,,2b/3>8[8:1],,,,3b/5-1[8:1],,6,,
5<8[8:1]/4,,3,3,5pp7[8:1],,2,2,,,4,,6b/5b-1[8:1],,4,,
5>2[8:1]/6,,7,7,5qq3[8:1],8,8,,,,6,,{32}5b/4b,,,3,,,5,,
6b/4,,,6,,,6,,8b,,,8,,,8,,1b,,,1,,,1,,3b,,,3,,,3,,
{16}4h[16:3],,5<3[4:1],5,,3,3p5[8:1],,,,4b,,8b,,6b,,
7/3,4,5,6,,,,,3,4,5,5,,7,,,3,4,5,6,,,,,3,4,5,5,,2,,,
6,5,4,3,,,,,6,5,4,4,,2,,,6,5,4,3,,,,,6,5,4,4,,7,,,
6h[16:3],3,4,5,,,,,6h[16:3],3,4,4,,7,,,
3h[16:3],6,5,4,,,,,3h[16:3],6,5,5,,2,,,
4-8[8:1],,,7,7-5[8:1],,6,,,2,2,,3b/4b,,,,
5-1[8:1],5,,2,2-4[8:1],,3,,7,7,7,7,6b/5b-1[8:1],,3,3,
3/5,,,3h[16:1],8,2h[16:1],7pp6[4:1],1h[16:1],6,,5,,4-1[8:1],,3,,
2,,2,8h[16:1],1,7h[16:1],8-4[8:1],6h[16:1],,1,1,,{32}3b,,,2,,,4,,
5b/3,,,5,,,5,,7b,,,7,,,7,,1b,,,1,,,1,,3b,,,3,,,3,,
{16}4,5/2,,6,5,4/7,,2,1,3,5,8,6,4,7,,
6/4,,5,3,7h[8:1],,2qq3[4:1],8,,8,2,,5-8[8:1],,6,6h[4:1],
,,,1,7,3,1-5[8:1],2h[8:1],,8,8,,6b,,3,4,
1-5[8:1],,,6,6-8[8:1],,7,,,3,3,,2b/1b,,3/4,,
8-4[8:1],8,,3,3-1[8:1],,2,,6,6,6,6,7b/8b-4[8:1],,5/6,,
8<5[8:1]/1,,2,2,8qq6[8:1],3,3,3,8<4[8:1],1,1,,1b/8b-4[8:1],,2,,
8>3[8:1]/7,,6,6,8pp2[8:1],5,,4,8>4[8:1],5,5,,7b/8bqq6[8:1],,6,1,
8pp2[8:1],,3,,8-4[8:1],,5,5,8,3,3,,1bq5[8:1]/8b,,4/5,,
1b/8>3[8:1],,,,8b/7q3[8:1],,,,7b/6<1[8:1],,,,6b/4-8[8:1],,3,,
4>1[8:1]/5,,6,6,4qq2[8:1],,7,7,4>8[8:1],,5,,5b/4b-8[8:1],,6,,
4<7[8:1]/3,,2,2,4pp6[8:1],1,1,,4,,3,,{32}4b/5b,,,6,,,4,,
3b/5,,,3,,,3,,3/1b,,,1,,,1,,1/8b,,,8,,,8,,8/6b,,,6,,,6,,
{16}6/5h[16:3],,4>6[4:1],4,,6,6q4[8:1],,,,5b,,1b,,3b,,
6<2[4:1],,,,,,3,,3p5[4:1],,,,,,8,7,6,,,4,,,3,,2<6[4:1],,,,5q3[4:1],,,,
(89){16},,,,,,4,,
(86){16}5,,
(70){16}3,,
(65){16}6,,
(64){16}2h[4:1],,,{64},,8,7>7[64:41],{16}6h[8:7],
