&title=GOODWORLD
&artist=EBIMAYO
&first=0.05
&lv_5=14
&des_5=Qaigss
&inote_5=(165)
{4},{16},,,
||这是一个标记~
,,,,,,,,,{4}1/5,
2,3,4,
5,6,7,8,
1/8,2,3/4,7,
6/5,4,{16}3,4,3,4,,,5,6,
{4}4b/7b-4[16:1],7/2-5[16:1],2/8-4[16:1],8/1-5[16:1],
1/6-2[16:1],6/3-7[16:1],3/5-1[16:1],5/4-8[16:1],
4b/5b,8x-5[16:1],8x-3[16:1],8x,
{24}8,7,6,5,,,1,2,3,4,,,{8}1b-4b[16:1]/8b-5b[16:1],8b/1b,,,2b,
4,{16}3,5,{8}3,{16}5,,,7,{8}5,{16}5,3,
{8}4,7,{16}6,5,{8}6,{16}3,,,4,{8}2,2,
2b,8,{16}1,8,{8}1,{16}7,,,3,{8}4,{16}6,5,
{8}7,3,{16}6,5,{8}6,{16}3,4,3,4,{8}3,{16}6,5,
{8}7,5,{16}6,4,{8}6,{16}4,,,2,{8}4,{16}6,4,
{8}5,2,{16}4,3,{8}4,{16}6,,,5,{8}7,7,
{16}3b,4,3,4,2,5,2,5,4,7,4,7,5,6,5,6,
,,{8}5/6,7/8,2/1,3/4,7/6,{16}1,8,1,8,
{32}A1f/A8f,A2/A7,A3/A6,5x/4x>5[32:49],{1},{4},,,{16},,{4}4h[8:1],
{16}5,3,{8}5,2,{16}2,5,,,{8}8/1h[2:1],
,A8/E8/B8,B7/E7/B6,E6/B5/A5,{4}6h[4:1],3,
{8}3,3,{16}5,5h[16:1],,,{8}4,{16}6,6,3,4,3,4,
{8}2,5,{16}4,4h[16:1],,,{8}7,{16}5,5,,6,,3,
{4}3h[4:1],{8}C,4h[4:1],,C,{4}3h[4:1],
{8}C,4h[4:1],,,{4}5-8[16:1]/4-1[16:1],5/4,
{16}2,,,8,{8}2-5[16:1],1,{4}2,{8}7/2,{16}1,8,
{8}1,7,{16}1-5[16:1],8,{8}8,{4}1,{8}8,7/2,
{16}7,,,1,{8}7-4[16:1],8,{4}7,{8}2/7,8,
,2,8-4[16:1],1,{4}8,5/3,
{16}7,,,1,{8}7-4[16:1],8,{4}7,{8}2/7,{16}8,1,
{8}8,2,{16}8-4[16:1],1,{8}1,{4}8,{8}2,{16}7,1,
{4}7h[4:1],{8}C,6h[4:1],,C,{4}5h[4:1],
{8}C,6h[4:1],,Ch[16:9],{2}7b,
{4}7b,{16}1h[8:1]/Cf,,,5h[8:1]/Cf,,,{8}3h[8:1]/Cf,{16},7h[8:1]/Cf,,,{4}6b/3b,
{16}8h[8:1]/Cf,,,3h[8:1]/Cf,,,{8}6h[8:1]/Cf,{16},2h[8:1]/Cf,,,{4}6b/3b,
{16}2h[8:1]/Cf,,,5h[8:1]/Cf,,,{8}3h[8:1]/Cf,{16},8h[8:1]/Cf,,,{4}7b/2b,
{16}1h[8:1]/Cf,,,6h[8:1]/Cf,,,{8}4h[8:1]/Cf,{16},6h[8:1]/Cf,,,7b/2b,
,,2/5,,3,4,3,8/1,,,7/2,,,{8}6/3,
{16}7/2,,,7/4,,6,5,6,8/1,,,7/2,,,{8}6/3,
{4}5-8[16:1]/3-8[16:1],5/3,{16}8,7,1,6,2,5,{8}3,
{4}4b<7[16:1]*>1[16:1],4bw8[16:1],{2}4b,
{4}8b/2b,{16}3,7,4,6,3,5,2,8,4,6,3,5,
1,8,4,6,3,5,2,7,4,5b
||这是一个标记~
,,,8,7,8,7,
{4}1b/6b,{16}2,1,3,7,8,6,4,5,2,6,1,8,
3,7,5b,6,3,4,1,6,3
||这是一个标记~
,4,2,5,{8}3,{16}5,6,
{4}4b/7b,{16}3,4,1,8,5,6,2,3,1,7,8,6,
2,5,4,7,6,8,1,6,5,7
||这是一个标记~
,,,2
||这是一个标记~
,1,2,1,
{4}3b/8b,{16}3
||这是一个标记~
,7,3,7,2,6,2,6,1,5,1,5,
{24}1
||这是一个标记~
,2,3,4,,,8,7,6,5,{48},,,,{16}2-6[16:1],,,7,{4}2,
{8}2h[16:1]/7-5[16:1],2h[16:1],7/2h[16:1],2h[16:1],2h[16:1]/6-4[16:1],2h[16:1],6/2h[16:1],2h[16:1],
2h[16:1]/7-5[16:1],2h[16:1],7/2h[16:1],2h[16:1],2h[16:1]/6-4[16:1],2h[16:1],{4}6/2h[16:1],
{8}7h[16:1]/2-4[16:1],7h[16:1],2/7h[16:1],7h[16:1],7h[16:1]/3-5[16:1],7h[16:1],3/7h[16:1],7h[16:1],
7h[16:1]/2-4[16:1],7h[16:1],2/7h[16:1],7h[16:1],7h[16:1]/3-5[16:1],7h[16:1],{4}3/7h[16:1],
7b/2b
||这是一个标记~
,{16}2
||这是一个标记~
,1,3,4,1,8,4,5,8,7,5,6,
3,4,2,6,5,7,1,8,3,6,2,1,3,7,8,6,
5,6,4,7,3,2,8,1,3,4,7,6,5,7,2,8,
{32}8/1
||这是一个标记~
,7/2,6/3,4/5<4[32:51],{1},{4},,,{16},,1,
,,1,,,{8}1>8[8:7],,,{4}B7/B6,
,B2/B3,{16},,,,,,,,6,
,,6,,,{8}6<5[8:7],,,{4}B7/B6,
,B2/B3,{8},,,,6h[8:3],
,,5h[8:3],,,{4}4h[8:3],
{8},3h[8:3],,,,,,,7,
7,{16}B3/B4/E4,6,{8}5,{4}8w4[16:1],8,
{8}2,2,{16}B6/E6/B5,3,{8}4,{4}1w5[16:1],1,
{8}7,7,{16}B3/E4/B4,6,{8}5,{4}8w4[16:1],{8}8,Ch[2:1],
,B7/B6,B2/B3,B8/B1,{4}8-5[16:1]/1-4[16:1],1/8,
{16}2,,,4,{8}2-5[16:1],4,{4}2,7,
,5,{2}6,
{8}6h[8:3],,,2h[8:3],,,{4}7h[8:3],
{8},1h[4:3],,,{2}8h[8:3],
{8},7b/Cf,{16},2b/Cf,,,{8}8b/Cf,1b/Cf,,,5,
5,{16}4/6,3/7,{8}2/8,3h[8:1],{16}1,2/8<5[16:1],,,{8}8,
{4}3,{8}1>3[8:1],3<5[8:1],5<7[8:1],7>1[8:1],,,2>4[16:1],
1,{16}2/6h[8:1],,,2,{8}8-4[16:1],1-5[16:1],8,1,
{16}3>1[16:1],,,4,{4}3,{16}6<8[8:1],,,5,{4}6,
{8}4,4,{16}3/5,6/2,{8}7/1,6h[8:1],{16}8,7/1>4[16:1],,,{8}1,
{4}6,{8}8<6[8:1],6>4[8:1],4>2[8:1],2<8[8:1],,,7<5[16:1],
8,7/3h[8:1],7,1-5[16:1],8-4[16:1],1,8,
{24}2bx,3,4,5,,,7bx,6,5,4,,,{8}3/7,1/5,{4}Cf,
{8}2b/1b,3/8,{16}7,5,{8}6,3/4,{16}2,4,,3,{8}5,
{16}2,1,{8}2,8/7,3/4,8-4[16:1],7-3[16:1],8,7,
2,3/4,7,{16}2,1,,5,{8}6,4/7,2/1,
{16}1w5[16:1],,,1b,,,,,8w4[16:1],,,8b,,,,,{8}2b/5b,
4/3,{16}6,5,{8}6,4/7,{16}1,8,{8}2,7,
{16}3,4,{8}3,2/5,3/7,{24}1,2,3,4,5,6,7,8,1,2,3,4,
{4}5/1-4[16:1],1/8-5[16:1],8/1-4[16:1],1/8,
{8}1/8,2/3,7/6,4/5,{4}1b-4b[16:1]/8b-5b[16:1],1b/8b,
{1}A1f/D1f/A8f/E8f/B7f/B6f/E6f/B5f/E5f/B4f/B3f/Cf,
E
