&title=みィつけた! (feat. 70D)
&artist=Natsuyama Yotsugi
&first=0
&des=Purritty
&lv_5=13+
&inote_5=(87)
,,,,
{8}4>5[8:4]/5<4[8:4],4/5,4/5,,,,,,1>8[8:4]/8<1[8:4],1/8,1/8,,,,,,
{16}4,4,5,5,3,,3>8[4:1],6,,,3,4,5,6,7,,5,5,4,4,6,,6<1[4:1],3,,,6,5,4,3,2,,
6/3p6<3[8:5],,6/3,,6/3,,5,5,,5,5,,5,5,,,3/6q3>6[8:5],,3/6,,3/6,,4,4,,4,4,,4,,,,
2,3,4,5,6,,6,4,6-1[8:1],,6/4,,6,,,,7,6,5,4,3,,3,4,3-8[8:1],,3/5,,3,,,,6pp3[8:5]/3,,6/3,,2,2,,4,4,,2,2,,,,,5/4,,5/4,,6,6,,3,3h[8:1],,4h[8:1],,5h[8:1],,6h[8:1],,
(174)
{8}Cf,,1<5[8:3],2,1,2,3,4,C,,8>4[8:3],7,8,7,6,5,C,,4,3,2,1q5[8:1]/5q1[8:1],,1x<5[8:1]/5x>1[8:1],,1xv3[8:1]/5xv7[8:1],,,,,2,1-5[8:1],,,7,8-4[8:1],,,3,2-5[8:1],,,,4,3,6,7,8-4[8:1],,,2,1-5[8:1],,,6,7-4[8:1],
{32},,,,,E1,B1,,{8}B2,B3,B4,B5,B6,B7,Cf,,1<5[8:3],2,1,2,3,4,C,,8>4[8:3],7,8,7,6,5,C,,4,3,2,1q5[8:1]/5q1[8:1],,1x<5[8:1]/5x>1[8:1],,1xv3[8:1]/5xv7[8:1],,,,,2,1-5[8:1],,,7,8-4[8:1],,,3,2-5[8:1],,,6,7-4[8:1],,,3,2,,,,,,,B2/B3/E3,B7/B6/E7,,,,,Ch[16:1],,,,
6pp3[4:6]/3b,,4,,4,,4,,2,,2,,2,,2,,3qq6[4:6]/6b,,5,,5,,5,,7,,7,,7,,7,,5/4,3,2/4,,5/4,6,7/5,,5/4,3,4/2,1,5/4,6,7/5,,5/4,6,7/5,,5/4,3,2/4,,4/5,6,7/5,8,5/4,3,2/4,,
B1/6,6,4,4,B2,,6,7,B3,,,8,B4/8,,1,2,B5/3,3,5,5,B6,,3,2,B7,2,,,B8,,1-4[8:1],,
1/8-3[8:1],,8/2-5[8:1],,2/7-4[8:1],,7/3-8[8:1],,3/6-1[8:1],,6,,2,2,8-5[8:1],,
8/1-6[8:1],,1/7-4[8:1],,7/2-5[8:1],,2/6-1[8:1],,3h[4:1],,4h[4:1],,5h[4:1],,6h[4:1],,
Cf,,8>4[8:3],7,8,7,6,5,C,,1<5[8:3],2,1,2,3,4,C,,5,6,7,8p4[8:1]/4p8[8:1],,8x>4[8:1]/4x<8[8:1],,8xv6[8:1]/4xv2[8:1],,,,,4,3-8[8:1],,,5,6-1[8:1],,,3,2-5[8:1],,,8,7,2,3,5,6-1[8:1],,,4,3-8[8:1],,,6,7-4[8:1],{32},,,,,E1,B1,,{8}B2,B3,B4,B5,B6,B7,Cf,,
8>4[8:3],7,8,7,6,5,C,,1<5[8:3],2,1,2,3,4,C,,5,6,7,8p4[8:1]/4p8[8:1],,8x>4[8:1]/4x<8[8:1],,8xv6[8:1]/4xv2[8:1],,,,,4,3-8[8:1],,,5,6-1[8:1],,,3,2-5[8:1],,,6,7-4[8:1],,,2,2,B7/B6/E7,,,,,,,,3h[4:1],,5h[4:1],,7h[4:1],,1h[4:1],,6<1[4:1],,1>4[4:1],,4<7[4:1],,7b,,3>8[4:1],,8<5[4:1],,5>2[4:1],,2b,,6<1[4:1],,1>4[4:1],,4<7[4:1],,7b,,E3,,E4,,E7,,E6,,2-5[4:1],,5-2[4:1],,2>5[4:1],,C,,7-4[4:1],,4-7[4:1],,7<4[4:1],,C,,2-6[4:1],,6-2[4:1],,2>6[4:1],,,,E8,,E7,,E2,,E3,,3/6h[8:7],,4,4,2,2,8,8,6/3h[8:7],,5,5,7,7,1,1,,,2,2,7,7,3,3,6,6,,,8h[8:3]/1,2,3,4,4h[8:3]/8,7,6,5,3h[8:3],6,6,,2h[8:3],7,7,,1h[8:3],8,8,,
6,6,3,3,5,5,{16}4,5,4,5,4h[4:3],,,,,,,,5h[4:1],,,,,,,,
(87)
{4}B3h[4:6],B6h[4:5],E4h[1:1],E6h[4:3],B4h[2:1],B5h[4:1],C,
{16}
4z8[32:1]/5s1[32:1],4/5,3/6,3/6,4bx>1[16:1]/5bx<8[16:1],,,,,,5-8-6[16:1],5,3-8-2[16:1],,5b,,3b,,,,1-6[16:1],2,3,4,5/1,,1>4[16:1]/5<8[16:1],,4v1[16:1]/8v5[16:1],,
,,,,,,{64}4bxv2[16:1]/8bxv6[16:1],3/7,6/2,1h[64:5]/5h[64:5],,,,,{16},,,,4-1-3[16:1],4,6-1-7[16:1],,4b,,6b,,,,2v3[16:1]/7v6[16:1],,,,2/7,,,,,,2,3,4w8[32:1]/8,7,6,5,4bv2[16:1]*v6[16:1]/Cf,,,,,,7-4-6[16:1],7,1-4-2[16:1],,7b,,1b,,,,8v2[16:1]/4v6[16:1],7,6,5,4/8,,1>4[16:1]/8<5[16:1],,4z8[16:1]/5s1[16:1],,,,,,,,{64}1bxv3[16:1]/5bxv7[16:1],2/6,7/3,8h[64:5]/4h[64:5],,,,,{16},,,,2-5-3[16:1],2,8-5-7[16:1],,2b,,8b,,,,3v2[16:1]/6v7[16:1],,,,3/6,,,,,,7,6,5w1[32:1]/1,2,3,4,5b/Cf,
