&title=Class Memories
&artist=Antistar feat. Ctymax
&first=0.35
&des=0d00 Respect for チャン@DP皆伝
&des_5=0d00
&lv_5=14+
&inote_5=(145){1},{8},,,,,,,,3,
6,{16}4,5,{8}4,6,3,{16}5,4,{8}5,
3,6,{16}4,5,{8}4,6,3,{16}5,4,{8}5,
4,6,{16}3,4,{8}3,5,3,{16}6,5,{8}6,
4,6,{16}3,4,{8}2,5,3,{16}6,5,{8}7,
4,3h[4:1],{16}6,7,{8}8,8,7h[4:1],{16}3,2,{8}1,
1,2h[4:1],{16}7,6,{8}5,5,6h[4:1],{16}2,3,{8}4,
5,4h[8:1],{16}8,7,6,5,{4}4h[8:1],{16}1,2,3,4,
{4}5h[8:1],{16}8,7,6,5,{8}4/3,2/1,5/6,8/7,
8h[4:1]/1b-4[8:1],2,{4}1,{8}3h[4:1]/8-5[8:1],7,{4}8,
{8}7h[4:1]/3-6[8:1],4,{4}3,{8}4h[4:1]/7-2[8:1],6,{4}7,
{8}5h[4:1]/4>1[8:1],3,4,6,3h[4:1]/7>2[8:1],8,7,4,
8h[4:1]/5>2[8:1],6,5,7,3h[4:1]/6q2[8:1],5,,4,
3b/5b,2,{48}1/8,B8,C,B4,,,{8}2,3/4,5,{48}7/1,B1,C,B5,,,{8}6,
5/4,3,{48}2/1,E1,E8,E7,,,{8}4,6/5,7,{48}8/1,E2,E3,E4,,,{8}6,
5/4,5/4,6/3,6/3,7/2,7/2,8/1,8/1,
{16}1,2,3,4,8,7,6,5,{32}2,3,4,5,6,7,8,1,2,3,4,5,6,7,8,1,
{16}2/7b,6,5,4,8,1,2,3,8,7,6,5,1,2,3,4,
1,8,7,6,2,3,4,5,6/7,8,1,2,8,1,2,3,
4,5,6,7,8,7,6,5,4,3,2,1,5,4,3,2,
6,5,4,3,7,6,5,4,8,7,6,5,1,8,7,6,
{4}5b,{16}4,3,2,1,4,3,2,1,5,4,3,2,
1/7,6,5,4,3,4,5,6,7,6,5,4,2,3,4,5,
8,7,6,5,8,1,2,3,1,8,7,6,1,2,3,4,
5,6,7,8,6,7,8,1,7,8,1,2,{32}8,7,6,5,4,3,2,1,
{4}8h[8:1]/4bh[8:1],4h[8:1]/7h[8:1],4h[8:1]/6h[8:1],5h[8:1]/4h[8:1],
{8}5/4,{16}6,5,{8}7/4,{16}3,4,{8}5/2,{16}2,1,{8}3/8,{16}7,8,
{8}1/6h[8:1],2,7/3h[8:1],6,4/5h[8:1],3,5/4h[8:1],6,
{16}4,5,3,6,4,5,3,6,{32}2,3,4,5,6,7,8,1,2,3,4,5,6,7,8,1,
{4}2/5b,,,{48}7b/2b,E3/E7,B3/B6,B5/B4,{6}E5,
{8}2/6h[4:3],1,{16}8,1,{8}2,3,4,{16}5,4,{8}3,
7/3h[4:3],8,{16}1,8,{8}7,6,5,{16}4,5,{8}6,
2/Ch[4:3],1,{16}8,7,{8}6,7,8,{16}1,2,{8}3,
5/4h[8:1],6,{16}7/4h[8:1],8,1,2,{8}3/4h[8:1],2,{16}1/4h[8:1],8,7,6,
{8}5bh[8:1],3,{16}6,6,{8}4,3h[8:1],5,{16}4,4,{8}6,
4/7h[8:1],5,{16}6,6,{8}3,5/2h[8:1],4,{16}3,3,{8}6,
7h[8:1],4h[8:1],{16}5,5,4,4,{8}3h[8:1],2h[8:1],{16}4,4,5,5,
{8}7h[8:1],6h[8:1],{16}5,5,4,4,{8}1h[8:1],2h[8:1],3h[8:1],4h[8:1],
5b,4,{16}7,8,{8}7,4,5,{16}2,1,{8}2,
5,4,{16}7,8,{8}6,4,5,{16}2,1,{8}3,
8,1,{16}6,4,{8}5,1,8,{16}3,5,{8}4,
8,1,{16}6,5,{8}7,1,8,{16}3,4,{8}2,
5b,3,{16}6,5,6,7,{8}6h[8:1],4,{16}3,4,3,2,
{8}3h[8:1],2,{16}1,8,1,2,{8}1h[8:1],8,{16}7,6,7,8,
{8}7h[8:1],8,{16}2,1,3,4,{8}2h[8:1],7,{16}6,5,7,8,
{8}6h[8:1],3,{16}8,1,{8}8,{16}7b/5b,,,4b/2b,,,{8}7b/2b,
{16}2,8,2,8,1,7,1,7,1,2,3,4,8,7,6,5,
3,5,3,5,4,6,4,6,4,3,2,1,5,6,7,8,
2b,8,2,8,1b,7,1,7,1b,2,3,4,8b,7,6,5,
{24}1b,8,7,6,5,4,8b,1,2,3,4,5,8b,1,2,3,4,5,1b,8,7,6,5,4,
{16}3,4,3,4,2,5,2,5,1,6,1,6,8,7,8,7,
1,2,3,4,8,7,6,5,1,2,3,4,8,7,6,5,
{24}1,2,3,8,7,6,1,2,3,8,7,6,2,3,4,7,6,5,2,3,4,7,6,5,
1,2,3,4/1,2,3,4/8,7,6,5/8,7,6,5/2,3,4,5,6,7,2,3,4,5,6,7,
{16}8b,7,1,6,2b,5,3,4,2b,1,3,8,4b,7,5,6,
3b,4,3b,5,3b,4,3b,6,3b,4,3b,7,3b,4,3b,8,
2b,4,3,5,4,6,5,7,8,6,1,7,2,8,3,1,
2,3,4,5,1,8,7,6,8,1,2,3,7,6,5,4,
{48}2b,E2,B1,B8,{12}E8,{48},,,,6b,E6,B5,B4,{6}E4,{48}3,,,4,,,{16}3,2,3,4,3,2,
3b,6,5,6,7,6,5,6,7b,6,5,6,7,8,1,2,
{4}3/5b,{16}4/6h[16:3],,,4,{4}6/4h[4:1],5,
{16}5/3h[16:3],,,5,3/6h[16:3],,,4,{4}6/4h[4:1],{8}5,{16}6,6,
3b,3,{8}3,{4}E5,E7,{8}E1,{16}2,2,
{8}2,E2/B1/B2,E3/B3/B2,{16}8,8,8,1,8,8,8,2,8,8,
{4}7b,E1,C,{8}E5,{16}5,5,
{8}5,3,2,{16}1,1,1,8,1,1,1,7,1,1,
{4}2b,3h,4h,{8}5h,{16}6,6,
{8}6,7h,7h,{16}8,8,8b,8,8,8,8b,8,8,8,
{8}8b,7,6/2,3,4/7,6,5/1,2,
{24}2b,7,2,7,2,7,3,6,3,6,3,6,4b,3,2,1bx/8b,7,6,4b/5bx,3,2,1bx/8,7,6,
{16}5/1,2,3,4,5/1,6,7,8,1/5,2,3,4,5/1,6,7,8,
1/5,4,3,2,1/5,8,7,6,5/1,4,3,2,1/5,8,7,6,
5/1,2,3,4,5/1,8,7,6,5/8,1,2,3,4/8,7,6,5,
{24}3x,4,5,2x,3,4,1x,2,3,8x,1,2,7x,8,1,6x,7,8,5x,6,7,4x,5,6,
{16}1,2,3,4,8,7,6,5,8,1,2,3,7,6,5,4,
{24}1,2,3,8,7,6,1,2,3,8,7,6,2,3,4,1,8,7,2,3,4,1,8,7,
{8}4,4,5,5,3,3,6,6,
{16}2b,6,1,5,8b,4,8,4,{32}1bx/5b,2/6,3/7,4/8,1bx,2,3,4,5b/1bx,6/2,7/3,8/4,1bx,2,3,4,
{16}5/2,3,4,5,1,8,7,6,1,2,3,4,8,7,6,5,
8,1,2,3,7,6,5,4,1,8,7,6,5,4,3,2,
1/8,7,6,5,7,6,5,4,1,2,3,4,2,3,4,5,
7,8,1,2,6,7,8,1,5,6,7,8,1,2,3,4,
2,4,2,4,3,5,3,5,4,6,4,6,4,5,4,5,
4,5,4,5,3,6,3,6,4,5,4,5,2,7,2,7,
1,2,8,7,2,3,7,6,2,3,7,6,3,4,6,5,
4/1b,2,3/7b,6,5/2b,3,4/8b,7,6/1b,2,3/7b,6,5/2b,3,4/8b,7,
6bx,,,B3,B4,,,B6,B5,,,B2,B1,,,B7,
B8,,,B2,B3,,,B4,B5,,,B6,B7,,,B8,
{1}B1,
E
