&title=Feel The Luv
&artist=Emocosine
&first=0
&lv_5=13+
&des_5=ama
&inote_5=
(155){4},{8},,,,,,3/5,
{16}2x,1xh[16:7],,,,,,,{8}8xh[4:1],,5,
1bxh[8:5],4x,,,,5,{4}5/2,
{8}6/4,{16}7x,8xh[16:7],,,,,,,{8}1xh[4:1],,4,
8bxh[8:5],5x,,,,4,{4}4/7,
{8}3/5,{16}2x,1x,{8}3x,8xh[8:1],4,4,5,3,
6/4,{16}7x,8x,{8}6x,1xh[8:1],5,5,4,6,
5/3,{16}2x,1x,{8}3x,8xh[8:1],{16}4,4x,5,3,{8}4,2,
{12}6,7,8,2,3,4,{4}1bs5-7[24:5]*v4[8:1],1bx,
{1}2x-8-5[8:5],
4x-1-7[8:5],
6x-4v1[8:5],
{4}8xv5-3[8:5],,,1x<8-6[8:1],
1bx,{16}5,,,2,{8}4,3xh[8:1],{4}8x>1-3[8:1],
8bx,{16}4,,,7,{8}5,6xh[8:1],{4}1-6[8:1],
1bx/4,5-2[8:1],5bx/8x,1x-5[8:1],
8x-4[8:1],2x>5[12:1],{8}7x<4[32:3],{32},,,,,,,,3x,2x,1x,8x,
{4}7x/4bx,{16}1/2,,,3,{8}4,1h[8:1],3x-5[12:1],1x,
{4}3bx,{16}8/7,,,6,{8}5,8h[8:1],6x-4[12:1],8x,
{4}6bx,{16}8/2,,,3,{8}5,1h[8:1],3x-6[12:1],1x,
{4}3bx,{16}1/7,,,6,{8}4,8h[8:1],6x>3b[8:1],8x,
{4}6b,{16}1/2x,,,3,{8}5x,6,3x<6[8:1],8x,
{4}1/3bx,{16}8/7x,,,6,{8}4x,3,{4}5h[8:1],
{12}4,{24}4,7x,,6x,{12}3,{24}3,8x,,7x,2x,3,4,5x,6,7,2x,3,4,5x,6,7,
{4}8x/1bh[#1.161293],B5h[32:1]/A5h[16:1],D7h[32:1]/E7h[16:1],A8h[32:1]/B8h[16:1],
{8}2/1x-5[8:1],4x/3x,{16}1x-3-6[16:3],6,{8}6x,1x/7,8,1bh[8:1],4b,
{16}3v8[8:1],4,,4,{8}3,5,1-5-7b[16:3]*-4[8:1],2x,,,3x<6[8:1],
1x/2x,3x,{16}8,8x,4-8[8:1]*-8[8:1],5,,5,{8}4,6b,
{16},,1x,1x,{8}3h[8:1],4h[8:1],5-3-1[8:1],4,{4}6/5,
{8}7/8x-4[8:1],5x/6x,{16}8x-6-3[16:3],3,{8}3x,8x/2,1,8bh[8:1],5b,
{16}6v1[8:1],5,,5,{8}6,4,8-4-2b[16:3]*-5[8:1],7x,,,6x>3[8:1],
8x/7x,6x,{16}1,1x,5x-1[8:1]*-1[8:1],4,,4,{8}5,3b,
{16},,2,1,{8}3/4,5/6,{32}8x/7x,1x,2x,3x,4x,5x,6x,7x,{4}8/Cf,
{12}2x,{24}2,1,,3,,,,5,,4,{12}7x,{24}7,8,,6,,,,4,,5,
{12}2x,{24}2,4,,4,{12}5x,{24}5,7,,7,{8}8-2-4[12:1],4-6[0.3226##0.129],{24},,,,,,{12}7x,
{24}7,8,,6,,,,4,,5,{12}2x,{24}2,1,,3,,,,5,,4,
{12}7x,{24}7,5,,5,{12}4x,{24}4,2,,2,{8}1-5-7b[6:1],2,{24},,,,,,{12}3x,
{24}3,4,,2,,,,8,,1,{12}6x,{24}6,5,,7,,,,1,,8,
{12}3x,{24}3,1,,1,{12}8x,{24}8,6,,6,{8}5>4>1[8:1],7,{4}5x/6,
{12}5x,{24}5,4,,6,,,,1,,8,{12}3x,{24}3,4,,2,,,,8,,1,
{8}5xh[8:5],6x,6x,6x,6>3b[8:1],6x,{4}6bx,
1bh[#1.935486],2,,3,
,4,{8}1x/5xw1[8:1],3x/7x,{4}B5f,
{16}6x/4bp8[8:1],,,5,{8}4x,6,3-8[8:1]*-8[8:1],5,3x,4,
{16}2p6[8:1],,,3,{8}2x,4,1x>4[8:1]*<6[8:1],2x/8x,{16},,,,3x/5bxq1[8:1],
,,4,{8}5,3,6-1[8:1]*-1[8:1],4,6x,5,
{16}7q3[8:1],,,6,{8}7x,5,8x>1-3[8:1]*<7-5[8:1],1x/7x,{24},,,,,,{12}4,
{24}4,5,,5,{12}3,{24}4,2,,,{12}5,{24}5,4,,4,{12}6,{24}5,7,,,{8}4x,
{24}7x,6x,5x,{8}4x<7[8:1]*>1[8:1],3x,{4}4xw8b[8:1],B4f,
{16}3x/2x-7[8:1],,,4x,{4}2x,{16}3x/2xv7[8:1],,,3x,{4}2x,
{16}3x/2xq7[8:1],,,1x,{4}2x,{16}3x/2xV47[16:3],,,8x,{8}2x,1b,
{4}E8/B7/E2/B2`Cf,8/2-8-6b[8:1],4<1[8:1],2-8-6b[8:1],
4<1[8:1],2-8-6b[8:1],4,E8/B7/E2/B2,
{16}6x/7x-2[8:1],,,5x,{4}7x,{16}6x/7xv2[8:1],,,6x,{4}7x,
{16}6x/7xp2[8:1],,,8x,{4}7x,{16}6x/7xV52[16:3],,,1x,{8}7x,8b,
{4}E2/B2/E8/B7`Cf,{24}3,4x,2x,1x,,,6,5x,7x,8x,,,4,5x,3x/6x,2x/7x,{12}1x/8x,
{2}B7/B2/B6/B5/B4/B3/E5f/E7f/E3f`Cf,{4}6x-3[12:1]/7x-2[12:1],{32}6b/7b/E7,Cf,{16}E3,,,{1}2x-4-6-8[8:5],
1xpp3>2pp4[8:5]*qq7>8qq6[8:5],
7x-5-3-1[8:5],
{2}B5/B4,{32}D5f,A5/A4,D6/D4,A6/A3,,,,,{4}E5,
4x/1xh[4:1],3,3/1,4/3,
5x/8xh[4:1],6,8/6,5/6,
{8}2/4h[8:1],8,7/5h[8:1],1,{32}8/4,3x,2x,1x,8x,7x,6x,5x,4x,3x,2x,1x,8x,7x,6x,5x,
{4}4b/Cf,{24}E8,E7,{6}E6,{24}E2,E3,{12}E4,{24},,E1,C,{6}E5,
{8}7b/8b,5bh[8:7]/6bh[8:7],{16},,,,,,,,,,,,,,2,
1,{8}4/3b,5/6b,1b/8b-4-2b[16:3]*-5[8:1],2b/7b,{4}Cf,
{8}6x>3[8:1],8x/7x,6x,{16}1,1x,5x<6<7>8>1>2[24:5]*<6<7>8>1>2[24:5],4,,4,{8}5,3b,
{16},,8x,8x,{8}6h[8:1],5h[8:1],4x-6-8b[8:1],5,{4}3/4,
{8}2/1x-5[8:1],4x/3x,{16}1x-3-6[16:3],6,{8}6x,1x/7,8,1h[8:1],4,
{16}3v8[8:1],4,,4,{8}3,5,1x-5-7b[16:3]*-4[8:1],2x/8x,,,3x<6[8:1],
1x/2x,3x,{16}8,8x,4x>3>2<1<8<7[24:5]*>3>2<1<8<7[24:5],5,,5,{8}4,6b,
{16},,7,8,{8}6b/5b,4b/3b,{32}1b/2b,8x,7x,6x,5bx,4x,3x,2x,{4}1b/Cf,
{12}6x,{24}6,5,,7,,,,1,,8,{12}3x,{24}3,4,,2,,,,8,,1,
{12}6x,{24}6,8,,8,{12}1x,{24}1,3,,3,{12}4-6-8[12:1],{24}4,8-2[0.3226##0.129],,8,,,,,,,{12}3x,
{24}3,4,,2,,,,8,,1,{12}6x,{24}6,5,,7,,,,1,,8,
{12}3x,{24}3,1,,1,{12}8x,{24}8,6,,6,{8}5x-1b[8:1],1x-7b[16:1]*-3b[16:1],{24},,,,,,{12}4x,
{24}4x,6,,5,{12}7x-5-3[48:7],{24}1,8,,2,{8}7x-3[8:1]*-3[8:1],1x,{4}7bx/4x,
{12}1x,{24}1x,7,,8,{12}6x-8-2[48:7],{24}4,5,,3,{8}6x-2[8:1]*-2[8:1],4x,{4}6bx/1x,
{24}4bx,5x,6x,7x,{12}8x,{24}5bx,6x,7x,8x,{12}1x,{24}4bx,3x,2x,1x,{12}8x,{24}3bx,2x,1x,8x,7x,6x,
{4}5x/1b>1[2:1],,,5b/A1f,
{8}3/5,{16}2x,1xh[16:7],,,,,,,{8}8xh[4:1],,5,
1bh[8:5],4x,,,,5,{4}5/2,
{8}6/4,{16}7x,8xh[16:7],,,,,,,{8}1xh[4:1],,4,
8bh[8:5],5x,,,,4,{4}4/7,
{8}3/5,{16}2x,1x,{8}3x,8xh[8:1],{16}4,6,{8}4,7,3,
6/4,{16}7x,8x,{8}6x,1xh[8:1],{16}5,3,{8}5,2,6,
5/3,{16}2x,1x,{8}3x,8xh[8:1],{16}4,4x,5,3,{8}4,2,
{12}6b,7b,8b,2b,3b,4b,{4}1bs5[8:1]*v4[8:1],1b,
1-4<5q8[4:15],4b,,,,E5,
E
