&title=被遗忘的时光
&artist=蔡琴
&first=0.6
&des_5=(初稿,年初存货)
&lv_5=12
&des=(初稿,年初存货)
&inote_5=(56.45){2}3-6[1:1],{16},,,C,{32}E8,,,E1,,,E1,,,,{16}7hx[16:15],,,,,,,,,,,,,,3,2-5[4:3],,,,,,,,1<2[2:1],,,,,,,,,,,,,,,,,,,,,,,,8qq3[1:1]*>4[1:1],,,,,,,,,,,,,,,,,,,,,,,,,,,,,,,,5w1[8:5],,,,,,,,,,,,,,,,{32},1x/4x-1[2:1],{16},,,,,,,,,,,,,,,
{16}6xh[8:1]/5x,,3,35,,8,8h[8:1],,1h[1:1],,,,{32}7x,,,5x,,,7x,,,,{16}7hx[16:15],,,,,,,,,,,,,,,1pp8[2:1],,5,6,,5,6,,5-3-6-2[16:7],,,,,,,,1,,1,1h[8:1],,8,8h[8:1],,2>6[4:1],,,,,,,,8-5[2:1],,,,E2,,,,E4,,,,3pp8[2:1],,,,7h[4:1],,,,,,E6,B5,B4,,,,4pp8b[2:1],,,,2V47[2:1],,,,,,,,,,,,8xh[4:1],,,,3xV58[2:1],,,,6xV41b[4:1],,,,E5f,,,,,,,,
{64}1bqq4[8:3]/7b,2x,3x,,{16},{64}7,,,,6x,,,,{16},,E6,B6,B7,,,,1-6[8:1],,2-5[8:1],,3,,2,E6,,E8,B6,,5h[4:1],,,{32}B2,E4,{16}4xh[16:2],,8x>7>6<5[8:5],,2h[2:1],,,,,,,,,,{64}E2,B1,B8,,,,,,E2,B2,B3,,,,,,{16}5h[4:1],{64}B7,B8,B1,B2,,,,,,,,,B6,B7,B8,B1,B2,B3,,,{16}5xh[8:1],,3h[8:1],,8<2[4:1],1,1h[8:1],,,,,1,
1bV73-8[4:1],,,6hx[16:1],,,E5,E6,E7,,,,{64}8x/1x,2x,3x,4xh[64:13],,,,,{16},,,,C/D5,,,,,,{24}E7,B6,B5,E3,B3,B4,{16}E5/8xh[4:1],,,
{16}3-8[4:1],4-7[4:1],,5,5,,,,,1h[8:1],,7,,6h[8:1]/5pp2b[2:1],,2,,,1,1,,3,3,,4,4b-1[4:1],,,,,,,,
{16}8h[4:2],,,{32}E4,B4,{16}B5,,,,2h[16:3],,,7h[32:11],{32}2x,,,4x,,,2x,,,2hx[32:7],,,,,,,{16}6h[4:2],,,{32}E4,B4,{16}B5,,,,4h[4:1],,,,{64}8bxqq5[16:5],7x,,,{16},,{32}B5,B4,{16}E4/8x,,2x,,1>6[4:1],,,8,1,,,,1xp5<8[8:2],,,,5>2[8:1],,3,,5<8[8:1]*q1[8:1],,,,5,,,,
{16}7,6,5,4,,6,5,4,3xpp8[2:1],,,,7pp4[2:1],,,,,,,,,,,,2<7qq3[16:7],,,,,,,,8hb[4:1],,,,{64}B4,B5,B6,B7,B8,B1,B2,B3,B4/8x,,,,,,,,4x,,,,,,,,4xqq8[8:3]/A8,A7,A6,A5,A4,A3,A2,A1,A8f,A7,A6,A5,A4,A3,A2,A1,,,,,,,,,{16}7x<2[2:1],,,,,,,,,,,1,1-4[4:1],,,,7,,,,,,,{64},,,6x,{16}5xv8<7[4:1],,,,,,,,{64},,2x,3x,{16}4qq6[4:1],,,,,,,,,,7-3b[8:7],,,,,,,,,,,,,,,,,,,,,,,,,,,,,,,,,,,,,,,,,{64}A7,A8,A1,A2,
