&title=Sprintrances
&artist=Taishi
&first=0
&des=RefIcul.
&lv_6=13
&des_6=RefIcul.
&inote_6=
(178){1},,{8}1-5[2:1],2,{2}1,{4}7,
{8}8-4[2:1],6,{2}8,{4}1,
2-6[2:1],{2}8,{4}5,
7-4[2:1],{2}1,{4}3,
{8}2-5[8:3],1,{4}8,6h[4:1],7,
{8}8-4[8:3],1,{4}2,3h[4:1],1,
{8}2-6[8:3],1,{4}8,7h[4:1],6,
{8}8,{16}1,2,3,4,{8}5,7,1,3,1/4,
{4}6h[8:5],{8}5,,,1,{4}7/8,
3h[8:5],{8}4,,,7,{4}1/2,
5/6h[8:5],{8}8,,,1,{4}3/4,
5/3h[8:5],{8}1,,,8,{4}5/6,
7-4[8:3],{2}1h[8:3],{4}2/3,
1-5[8:3],{2}8h[8:3],{4}6/7,
{8}8-4[8:3],8,1h[4:1],,,2,{4}3/4,
{8}2-5[8:3],1,8h[4:1],,,7,{4}5/6,
{8}7-4[8:1],5,7,2-5[8:1],4,2,8-4[8:1],5,
8,2-6[8:1],4,2,{4}8h[4:1],4,
{8}2-5[8:1],4,2,8-4[8:1],5,8,1-5[8:1],3,
1,7-4[8:1],6,7,{4}1,2/3,
{8}2-5[8:1],1,2,8-3[8:1],1,8,1-5[8:1],8,
1,7-4[8:1],8,7,{4}1h[4:1],5,
{8}7-4[8:1],8,7,1-5[8:1],8,1,8-3[8:1],1,
8,2-5[8:1],1,2,{4}8,3/7,
{1}6h[4:3]/2<7[2:1],
{8}2/7-3[2:1],8,{4}1,{8}5,6,7,8,
{1}7h[4:3]/3<6[2:1],
{8}3/6-2[2:1],5,{4}4,8,7,
{1}6>3[2:1]/2<7[2:1],
{8}4-7[4:1],4,,,1,1,2,3,
{1}3<6[2:1]/7>2[2:1],
{8}1-5[16:1]/2-5[16:1],1/2,{4}1/2,5/6,2/3,
2-5[16:1]/7-4[16:1],2/7,{8}4-8[16:1],4,{4}3/4,
2-5[16:1]/7-4[16:1],{8}2/7,,,5/6,{4}7,
8-5[16:1]/2-5[16:1],2/8,{8}5-1[16:1],5,{4}5/6,
1-4[16:1]/7-4[16:1],1/7,{8}4-8[16:1],4,{4}3/4,
8-4[16:1]/7-4[16:1],7/8,{8}3h[4:1],2,{4}1,
2-5[16:1]/1-5[16:1],1/2,{8}6h[4:1],8,{4}1,
{8}2,1,2,1,5,6,5,6,
{16}8,1,2,3,4,5,6,7,8,7,6,5,4,3,{8}2b,
{4}1h[4:1],{8}8h[8:3],,,7-4[16:1],{4}7,
5h[4:1],{8}4h[8:3],,,3-8[16:1],{4}3,
2h[4:1],{8}8,{4}1/3,{8}1-6[8:1],4-8[8:1],1,
{4}4>1[8:1],2h[4:1],{16}8,7,6,5,{4}4b/8b,
7-3[8:1]/6-2[8:1],6/7,{8}2,1,{2}8>3[8:1]/3<6[8:1],
{8}7/8,{4}3/4,{8}5h[8:3],,,
1,3,2,8,3,7,4,6,
{4}5h[2:1],2,{16}1,8,7,6b,4,3,2,1b,
{4}8/2h[4:1],{8}4,,,3-8[16:1]/6-1[16:1],{4}3/6,
2/7h[4:1],{8}6,,,4-7[16:1]/5-2[16:1],{4}4/5,
1h[4:1],{8}7,{4}3/8h[4:1],{8}2-6[8:1],6-2[8:1],2>5[8:1],
{2}5<8[8:1],{16}1,2,3,4,{4}1b/5b,
1h[4:1],4,{8}2/3-8[8:1],{2}6/7-4[8:1],
{4}4h[4:1],3h[4:1],{8}2h[4:1],,,
2-7[16:1],6-3[16:1],2,6,1-4[16:1],5-8[8:1],1,5,
{2}4h[4:1],{16}1/4,8,3/7,6,{4}5-8[1:2]/1-4[8:1],
1b,
{1},
{1},
{1},E
