&title=Widow's kiss
&artist=Widowmaker
&first=0.885
&des=Amélie Guillard
&wholebpm=182.000
&lv_5=14
&des_5=Amélie Guillard
&inote_5=(182)
{8}6,5,4,5,3h[4:1],5,
(149){4}4,(131){4}45,,
(182)
{8}6,5,4,5,3h[4:1],5,
(149){8}4,35,
(131){4}26,,
(182)
{4}2h[4:1],{12}E4,E5,E6,{4}2,
{8}6,5,4,5,4h[4:1]/6h[4:2],,
{4},,{16}6,4,5,3,
{8}7b,,,1bh[4:1]/5bh[4:1],,,
{8}3/4h[8:1],2,6h[8:1],8,71,8,
{8}2h[8:1],4,6h[8:1],4,53,,
{8}6/5h[8:1],7,3h[8:1],1,28,{16}3,6,
(147)
{12}5xh[12:2],,1b,
(102)
{4},
(182)
{16}D2,D3,D4,A4,D8,D7,D6,A5,A2,B3,A7,B6,
{24}C,,,,,E1,{4}A8/A1,{8},,
{4}6h[8:1],5h[8:1],4h[8:1],
{8}36,,,45,,,
(97)
{4}2q7[57.75#8:1],
(142)
{4},
(117)
{4}8p1[60#8:1],
(125)
{4},
(130){12}6p3[59#12:2],,(113){12},,,,(135){4},,
(182)
{4}4-2[60.667#24:1],{12}5,3,6,{4}5,
{4}8-4[60.667#24:1],{12}1,7,2,{4}1,
{4}3p6[60.667#24:1],{12}2,4,3,7,5,6,
{4},1bh[8:3]/5bh[8:3],,
{12}4q8[60.667#24:1],,,2,1,3,{8}7,6,
{12}5p1[60.667#24:1],,,7,8,6,{8}2,3,
{12}4,,,8,5,6,1,4,3,
{12}7,5,1,2,4,8,{8}7-3[60.667#24:1],,
{8}4-1[60.667#24:1],3,2-5[60.667#24:1],,,,
{4},,{16}8,1,7,2,
{4}6<3[60.667#8:1],E1,C,
{4}E5,,45,
{4}4h[4:3],A3,A7,
{4}5h[4:3],E3,E8,
{4}6p4[60.667#12:2],7,8,
{4},,,
{4}36,{8}A2,B3,C,B7,
{4}A6,B8/B1,B5/B4,
{16}3h[16:3],,,4h[16:3],,,5,,{4}54,
{4}A8/D8/A7/D7,D4/A4/A5/D5/D6,A1/D2/A2/D3,
{8}6q2[60.667#24:1],6,5,5,45,,
{8}3p7[60.667#24:1],3,4,4,45,,
{8}6<3[60.667#12:1],,5,,3,,
{4}1h[4:2],,{8}5,3,
{16}8/2h[4:1],,,,6,,6,7,8,1,2,3,
{16}4/8h[4:1],,,,6,,6,5,4,3,2,1,
{16}4/8h[4:1],,,,6,,6,7,8,1,2,3,
{16}4-1[60.667#4:2]/6h[4:1],,,,2,,2,3,4,5,6,7,
{4}8b,,,,,,
{4},,,
{4},{8}6,6,6h,6h[8:7],
{4}2bh[4:6],,,
{4}`2?-6b[60.667#24:1],,,
{4},,,
{4},,,
{8},7bh[8:11]/3h[8:5],{4},,
{4}`7?-3b[60.667#24:1],,,
{4},,{16}3,5,4,6,
{4}2b,{8},4bh[4:1]/8bh[4:1],{4},
{8}3h[8:1]/6h[8:1],,{16}2,4,2,4,3,5,3,5,
{16}4,6,5,6,3,6,5,6,2,6,5,6,
{16}4,5,3,6,2,7,1,8,{24}2,3,4,7,6,5,
{8}1h[16:1],2h[16:1]/8h[16:1],3h[16:1]/7h[16:1],4h[16:1]/6h[16:1],5-3>6-4>3>2<1<8<7<6>5b[60.667#24:7],,
{4}1bh[4:6],,,
{4},,,
{4}E5f/B5/B4/A5/A4,,{16}1,2,3,4,
{4}5h[4:1]/1h[4:1],{48},D1f/D5,A8/A4,D8/D4,A3/A7,D7/D3,{8}A2/A6,{4},
{16}8>3[60.667#24:1],7,6,5,8,7,6,5,8,7,6,5,
{8},,E5/B5,B2/B3,B7/B8,,
{16}2-6[60.667#24:1],3,4,5,2,3,4,5,2,3,4,5,
{8},,E7/B6/B5/E5,,A2/A1/E2h[4:2]/B2/B1,,
{4},{16}7,6,5,4,8,7,6,5,
{16}1,8,7,6,E2,E1,E8,E7,E6,E5,E4,E3,
{4}8-4[60.667#24:1],{16}1-6[60.667#24:1],2,3,,7-2[60.667#24:1],6,5,,
{4},,,
{16}3xp1[60.667#12:2],4,7x,8,2x,3,6x,7,1x,2,5x,6,
{4},,,
{16}6xp4[60.667#12:2]*p3[60.667#12:2],5,2x,1,7x,6,3x,2,8x,7,4x,3,
{4},,,
{4}4h[4:1]/2,{16}8,7,6,5,4,35,26,17,
{4}8h[4:1],{16}4,5,6,7,8,1,2,3,
{16}48,7,6,5,84,3,2,1,8,17,26,35,
{4}4-8[60.667#24:1]*-7[60.667#24:1],{24}1,5,1,5,1,5,{4}1,
{4}4bqq5[60.667#12:2],,,
{4}6pp2[60.667#12:2],,,
{4}4h[4:1],{8},4,4,4,
{4}3/5-1[60.667#24:1]*-2[60.667#24:1],7,{8}6,6,
{4}5bpp8[60.667#12:2],,,
{4}3qq5[60.667#12:2],,,
{4}6h[8:1],7h[8:1],8h[8:1],
{4}3v8[60.667#24:1]/7,{16}1,5,1,5,2,4,2,4,
{8}3b,6,17,2,45,36,
{8}7>2[60.667#24:1],5,6h[8:1],4,5h[8:1],3,
{4}7b,{16}4,5,3,6,4,5,2,7,
{4}1h[4:1],{16}4,2,5,3,6,4,7,,
{16}1/6b,2,3,4,5/8b,4,3,2,1/6b,,,,
{16}7/2b,6,5,4,3/8b,4,5,6,7/2b,,,,
{12}6b/3b,6,6,7b/5b,5,5,8b/4b,84,84,
{4}8xb/4xb>4>4[20.222#4:2],,,
{4},,,,,,,,,,,,,,,,,,,,,,,,
{4}8b,1b/5b,2b/6b,3bh[16:1]/7bh[16:1],4bh[16:1]/8bh[16:1],1bh[16:1]/5bh[16:1],
{16}2,4,3,5,4,6,{8}2h[8:1],8h[8:1],4h[8:1],
{16}7,5,6,4,5,3,{8}7h[8:1],1h[8:1],5h[8:1],
{16}2qq7[60.667#12:2],4,3,5,4,6,5,7,4,6,3,5,
{4}2,,,
{12}2,2h[12:1],4,7,7h[12:1],5,1,1h[12:1],3,
{12}8,8h[12:1],6,4,4h[12:1],2,5,5h[12:1],7,
{16}4q5[60.667#12:2]*p1[60.667#12:2],3,2,1,6,5,4,3,8,7,6,5,
{4},,,
{4}E1f/7xbh[4:2],{32}6,5x,,,{8},{32}3,4x,,,{8},
{4}Cf/1xbh[4:2],{32}3,4x,,,{8},{32}6,5x,,,{8},
{4}E7f/3xbh[4:2],{32}1,2x,,,{8},{32}8,7x,,,{8},
{4}E3f/5xbh[4:2],{32}7,6x,,,{8},{32}3,4x,,,{8},
{4}7xbh[4:1]/E5f,{32}6,5x,,,{8},{32}28,3x/7x,,,{8},
{4}1xbh[4:1]/Cf,{32}3,4x,,,{8},{32}26,3x/5x,,,{8},
{4}3xbh[4:1]/E1f,{32}6,5x,,,{8},{32}18,2x/7x,,,{8},
{4}D3/A3/A4/D4/E4,D7/A6/A5/D6/E6,A8/A1/E2/E1/E8/D8/D2,
{16}3b,4,2,6,5,7,{24}1x,8x,7x,6x,5x,4x,{8}3x,
{16}7b,5,6,2,4,3,{24}8x,1x,2x,3x,4x,5x,{8}6x,
{16}1b,8,2,7,3b,4,2,5,4b,6,3,7,
{24}2b,1,8,7,6,5,1,8,7,6,5,4,{4}E1f,
(175)
{8}4xb/3xb,42,41,48,47,46,
(150){8}5h[8:1],(120){8}3h[8:1],1b,,
(200){12}6,(232){12}5,(222){12}4,
(165)
{4}3<6[59#12:2],
(182)
{4},,
{4},,,
{4}3<6[60.667#12:2],,,
{4},,,
(186)
{8}6,5,4,5,{8}3h[4:1],
(156){8}5,4,,
(131){4}45,,
(186)
{8}6,5,4,5,{8}3h[4:1],
(165){8}5,
(118){8}4,
(106){8}2,
(105){4}8z4[56.5#32:1],,,,
