&title=おどロボ
&artist=海茶/umicha
&first=0.04
&lv_5=13
&des_5=molly,小white,澜零蝶
&inote_5=
(145){8},5,4,5/4,6,3,3/6,2/7,
,6/2,7/3,7h[4:1],5,2h[4:1],4,7h[4:1],
,5,2/7,8h[8:1]/1h[8:1],,4/5,4h[4:1],5,
5,4/5,{4}2/7,{8}5x/E4,6x/E3,7x/E2,8x/Cfh[4:1],
,,,1/8,,8/1>4[8:3],,8,
7,6,5<8[8:3],5/4,4/5,3,2,1h[4:1],
,,,3/4,,5/4h[4:1],,5,
3,6,2,7,2>4q1[8:3]/7<5v8[8:3],8/1,{4}7/2,
{8},,,2h[4:1]/5-8[4:1],,5,,4,
3,2,1-4[4:1],1/8,7/1,6,5,5h[4:1],
,,,4/5pp8[8:5],,5,,4,
3,2,1,8<6[8:1]/1>3[8:1],{16},,,,,,4,5,
3,6,2,7,1,8,{8}1,8,7,,5/Ch[4:3],
,7,,6,,5,,B7/B2,
,1x/6x,3x/8x,2/7,3/6,5b/4b,6/3,7/2,
8/1,2/7,3/6,4>1[8:1]/5<8[8:1],,5/4,,4-8b[8:1]/5-1b[8:1],
,5/4/Cf,,2,3,4,5,5h[2:1],
B7,E1,B2,4<7[8:1],,4x>1[8:1],,4x-8b[8:1],
,4bx/Cf,,3,4,5,6,7,
8,1,2,3x/4x,6x/5x,7x/8x,1x/2x,1-5[8:1]/8-4[8:1],
7/2,1/8/Cf,,4/5-1[8:1],5,4-8[8:1],4,5<8[8:1],
,5/4>1[8:1],,6q2b[8:1],6,3p7b[8:1],6,3,
,4>1b[8:1]/5<8[8:1],,5/4,,3>1[8:1]/6<8b[8:1],,3/6,
,3/6,,4/5-1[8:1],,5w1b[8:1],,Cf,
,5/3-7[8:1],,3/5-1[8:1],,5/7-3[8:1],,7/1,
,1-5[8:1]/7-3[8:1],,7/1,,5>1[4:1],,1<5[4:1],
,5V31[4:1],,1V75[4:1],,5,,4,
3,2,1x/2x,2h[16:3],{16},1h[16:3],,,{8}2,{16}1,8,
7,6,5,4,3,2,{8}1<5[4:1],,5>1[4:1],,1V75[4:1],
,5V31[4:1],,1V75[4:1],,5,,1,
,4/5<8[32:5],,5/4>1b[32:5],,5/4,,3>1[8:1]/6<8[8:1],
,3/6,,5<8[8:1],,5q1[8:1],,5,
,7-5[8:1],8-4[8:1],7,8,2-4[8:1],1-5[8:1],2,
1,3,4,5>2[8:1],,5b<8[8:1],,5b-1b[8:1],
,Cf,,4>2[8:1]/5p1[8:1],,D5/A4/A5,,4q8[8:1]/5<7[8:1],
,A5/D5/A4,,1h[16:3],{16},8h[16:3],,,{8}1,{16}8,1,
8,1,8,1,8,1h[16:5],{8}7bx,,B2,,,5h[8:1],
B2,,4h[4:1],,B7,,,4h[8:1],
B7,,4h[4:1],,B8,,,4h[8:1],
B8,,5h[4:1],,B1,,,5h[8:1],
B1,,3x/4,,5/C,,7,
C,7,6,1x,2,3,4,5,
6,C,4x,5h[4:1],,7h[4:1],,4,
3,2,1,6b/5,,4/3b,{16},,4bx,5,
4,5,4,8x,1x,8x,{8}1x-4-7q3-6-1[4:5],,1,,,,,,,,1>5[4:1],
,5q1[4:1],
,1q7[4:1],,7>3[4:1],,3<7[4:1],,8,
,8>7[4:3],,C,,C,,C,
,C,,8-4[8:1],7-5[8:1],8,7,1-5[8:1],
2-4[8:1],1,2,5,,5/8>4[4:1],,4<8[4:1],
,8>4[4:1],,4<8[4:1],,8>4[4:1],,4,
6,8,2,6h[8:1],3h[8:1],7h[8:1],2h[8:1],{16}8,1,
8,1,{8}8bx,{16}8x,1,{8}2-6[8:1],2,2/4-8[8:1],,4/2,
,3/8,,6,3p7b[8:1],6q2b[8:1],3,6,
,5<8b[8:1]/4>1[8:1],,5/4,,6<8[8:1]/3>1b[8:1],,6/3,
,6/3,,5/4-8[8:1],,4w8b[8:1],,4/Cf,
,6-2[8:1]/5>1[8:1],,5/6,,3-7[8:1]/4<8[8:1],,3/4,
,8-4b[8:1]/1-5b[8:1],,1/8,,4<8[4:1],,8>4[4:1],
,4q8[4:1],,8q4[4:1],,4<8[4:1],,8>3[4:1],
,4,,5h[16:3],{16},4h[16:3],,,{8}5,{16}3x,4,
5,6,7,8,1,2,{8}3x-7[8:1],,3/2-6[8:1],,2/7<4[8:1],
,7/2,,3p7b[8:1],6,6q2b[8:1],3,6,
,5v2[8:1]/4v7[8:1],,5<8b[8:1]/4>1[8:1],,4/5,,6<8[8:1]/3>1b[8:1],
,6/3,,1<5[4:1],,5>1[4:1],,1p5[4:1],
,5p1[4:1],,1<5[4:1],,5>3[4:1],,1,
,5-1[8:1],,5w1b[8:1],,5/Cf,,2-6[8:1]/1>4[8:1],
,1/2,,7-3[8:1]/8<5[8:1],,7/8,,4-8[8:1]/5-1[8:1],
,5/4,,5h[16:3],{16},4h[16:3],,,{8}5,{16}4,5,
4,5,4x,5x,4x,5x,{8}4x>1[1:1],,5,,6,
,7,,8<5[1:1],,,,1,
,2,,5>1[1:1],,8,,7,
,6,,5h[2:1],,,,,4,
5,4,6h[4:1],,7h[8:1],{4}8x-4[4:1],
1h[8:1],2h[8:3],{8},3x,{4}4x<6[8:1],
{8}4/3,2,1,7,7,5,5,4,
4,2,2h[8:5],E3,{16},E2,,,{8}E1,E8,
E7,{16}4,5,4,5,{8}4>1[4:1],,1<6[4:1],,6p2<7>2[4:3],
,,,,,,,7<3[4:1],
,3>8[4:1],,8<4[4:1],,4p8[4:1],,8p4[4:1],
,4>5[2:1]*q5[2:1],,,,,,,5,
6,7,8,1,8,2,8,
3,8>4[4:1],,8,,8,,8,
1,2,,3-1[8:1],,6-8[8:1],,3-1[8:1],
,6-8[8:1],,6,3bx,4bx,5bx,6bx-2b[8:1],
,6bx/Cf,,4>4[2:23],{1},,,,,{4},,,{8},8x>4b[2:11],
{1},,,,,,{8},6h[2:1],
,,,5h[2:1],
,,,4h[2:1],,,,3h[4:1],
,,4,5,4,6,
3,7,2,4bx/5,3bx/6,2bx/7,1bx/8,2bx/7,
,1-5b[8:1],1,1b/Cf/6bxv3[8:1],6,3q1b[32:3],,3,
,2,1,8-4[8:1],2-6[8:1],8>3[32:5],2,8,
{16},,,,1,8,{8}7>2p5b[8:3],3,2>6p1[8:3],,,,,,1bx/7bx,
{16},3x/6x,,,{8}3x/8x,1x/6x,
,4/6-2[8:1],5,3-8[8:1],4,6v5[8:1],5,3qq1[8:1],
,3,,6-8[8:1],5,5-1[8:1],4,3,
,8/1,{16}2x/7x,6x/3x,{8}5x/4x,6/3,2/7,8/3,7/1,
3/8,4/5>7[8:3],2/7,5b/4b,{16},,,,,,1bx,2x,
1x,2x,{8}1x-5b[8:1],1,1b/Cf/6bxv3[8:1],6,3q1b[8:1],,3,
,2,3,4-2[8:1],5,5-1[8:1],4,2>5b[8:1],
,2b,,7-4[8:1],{4}7,{8}3,2,
1,7/4h[8:1],5,1b/2b,{16},1/2,,,{8}3/8,5/6,
{16}1,2,{8}3/6-2[8:1],6,3-8[8:1],3,6v5[8:1],6,3qq1[8:1],
,3/6,,1-5[8:1],7-3[8:1],1<6[32:5],7,1,
,2/7,{16}4,5,{8}4,6/2,3/7,8/2,5/4,
1/7,4/5<4[2:1],2/7,5b/4b,{16},,,,,,E6,E7,
E8,E1,E2,E3,E4,E5,{8}5xh[4:1],,,,3h[4:1]/7h[4:1],
,,,4/5,{16},6/3b,,,{8}7/2b,{16}1,8,
1,8,2,7,3,6,{8}4h[4:1],,7,,4/5h[4:1],
,2,,7h[4:1],5,2h[4:1],4,7h[4:1],
,2,3/6,4-7[8:1]/5<7[8:1],,5/4,,5-2[8:1]/4>2[8:1],
,5<1[4:1],,1>5[4:1],,5bx,,6,
{16}5x,4x,{8}5x,4,5/4h[4:1],,7,,4/5h[4:1],
,2,,7h[4:1],5,2h[4:1],4,7h[4:1],
,2,3,5/4h[8:1],7,4/5h[8:1],{4}2>7[4:1],
,5x,{8}5,6,7,8v7[4:1],
,8bx>8b[4:7],,Cfh[4:7],
E
&lv_6=1
&des_6=
&inote_6=
(125){4},{16},,,,,
||这是一个标记~
,
E
