&title=Pentiment
&artist= Nothing But Requiem with Museo
&first=0.15
&des=NeoPharmazZ
&lv_5=15
&inote_5=(222){8},,,,,,,,
1pp4[4:6]/8,,18,,,,,,
Cf,,,,,,,,
8qq5[4:6]/1,,81,,,,,,
Cf,,,,,,,,
2qq7[4:6]/7,,27,,,,,,
Cf,,,,,,,,
6qq3[4:6]/3,,63,,,,,,
Cf,,,,,,,,
1x/8x,8,2,2,2,4,4,4,
6,6,6,8,8,8,2,6,
8x/1x,1,7,7,7,5,5,5,
3,3,3,1s5[4:1],,,,,
{16}6x,5,6,5,7,5,7,5,8-4[16:1],5,8,5,8,,,,
3x,4,3,4,2,4,2,4,1-5[16:1],4,1,4,1qq5[4:3]*pp5[4:3],,,,
1b,,,,,,,,,,,,,,,,
2h[4:1],,,,Ch[4:2],,,,8v2[16:1]*v6[16:1],,,,,,,,
18,,46,,35,,64,,18,,46,,35,,64,,
81,,53,,64,,35,,81,,53,,64,,63,27,
18,,46,,35,,64,,18,,35,,64,,35,,
1b-5[16:1]/8b-6[16:1],,,,1b-3[16:1]/8b-4[16:1],,,,1b-5[16:1]/8b-6[16:1],,,,1b/8b,,,,
18,,35,,57,,35,,18,,35,,57,,35,,
18,,35,,57,,35,,18,27,36,,24,,46,,
18,,46,,24,,46,,18,,46,,24,,46,,
{12}1b/2b,,3b/4b,,5b/6b,,7b-4[16:1]/8b-3[16:1],,,,,,
{16}18,,53,,27,,35,,18,,64,,27,,64,,
18,,53,,27,,35,,18,,64,,27,,63,27,
18,,53,,27,,35,,18,,64,,27,,64,,
8b-4[16:1]/1b-3[16:1],,,,8b-6[16:1]/1b-5[16:1],,,,8b-4[16:1]/1b-3[16:1],,,,8b/1b,,,,
12,,65,,74,,65,,1-6[16:1]/2-5[16:1],,65,,,,,,
78,,43,,52,,43,,7,8,6,1,5<2[4:1],2,4,3,
5b,,,,3h[8:1],,4h[8:1],,5h[8:1],,7h[8:1],,8h[8:1],,1h[8:1],,
4h[8:1],,5h[8:1],,6h[8:1],,7-3[8:1],,,,7,,8,,,,
3b/6b,,,,E4/B4/B3,,E6/B6/B5,,E1/B1/B8,,,,7,2,7,2h[16:11],
{64}8,E8,B7,B6,E6,,,,,,,,,,,,E4,B3,B2,E2,,,,,,,,,,,,,E7,,,,,,,,E1,,,,,,,,E8/2,B7,B6,E6,,,,,2,,,,,,,,
2/B6,B7,B8,E1,,,,,,,,,,,,,E3,,,,,,,,2/E1,,,,,,,,E2,B2,B3,E4,,,,,,,,,,,,,2,,,,7,,,,2,,,,7,,,,
1,E2,B2,B3,E4,,,,,,,,,,,,7,,,,E3,,,,E7,,,,E1,,,,E5,B5,B4,B6,B3,B7,B2,B8,B1,,,,,,,,,,,,,,,,,,,,,,,,
{16}6b/3b,,,,E6/B5/B6,,E4/B3/B4,,E1/B8/B1,,,,4,5,3,6h[16:11],
{64}1,E1,B8,B7,E7,,,,,,,,,,,,E2,B2,B3,E4,,,,,,,,,,,,,E6,,,,,,,,E4,,,,,,,,E5/6,B5,B6,B7,E8,,,,,,,,,,,,
{16}5h[4:4],,1,8,7,,1,2,3,,1,8,7,,1,2,
3,5,3,5,4,6,4,6,3,5,4,6,1w5[16:1],,,,
{32}1b,,,,,,,,3h[8:1]/8,7,6,,,,,,4h[8:1]/7,6,5,,,,,,3h[8:1]/8,7,6,,,,,,
2h[8:1]/7,6,5,,,,,,1h[8:1]/8,7,6,,,,,,2h[8:1]/7,6,5,,,,,,8w4[16:1]/3h[8:1],7,6,,,,,,
8b,,,,,,,,6h[8:1]/1,2,3,,,,,,5h[8:1]/2,3,4,,,,,,6h[8:1]/1,2,3,,,,,,
7h[8:1]/2,3,4,,,,,,8h[8:1]/1,2,3,,,,,,7h[8:1]/2,3,4,,,,,,1-5[16:1]/6h[8:1],2,3,,,,,,
1b-4[16:1]/8,7,6,,,,,,1-3[16:1]/7,6,5,,,,,,1-5[16:1]/6,5,4,,,,,,1/8-4[16:1],7,6,,,,,,
8b-5[16:1]/1,2,3,,,,,,8-6[16:1]/2,3,4,,,,,,8-4[16:1]/3,4,5,,,,,,8/1,2,3,,,,,,
{8}1b/8b,18,72,72,6b/3b,63,54,54,
63,51,43,26,84,65,74,63,
5b/2b^7[1:7],,,,E7,,,,
E2,,E8,,E4,,E6,,
E3,,,,E5,,,,
E2,,E6,,E4,,E8,,
E1,,E5,,E2,,E6,,
E3,,E7,,E4,,E8,,
E5,,,,,,,,
C,,,,4-1[16:1]/5-8[16:1],,,,
6x/3x,2,5,1,6,2,7,3,
8,4,7bp1[8:3]/5bq3[8:3],,,,,,
3x/6x,7,4,8,3,7,2,6,
1,5,2bq8[8:3]/4bp6[8:3],,,,,,
1x-5[8:1]/2x,,8,7,6x-1[8:1]/4x-1[8:1],,64,,
8x-4[8:1]/7x,,1,2,3x-8[8:1]/5x-8[8:1],,35,,
6x/5x-1[8:1],,5b/4b,,3x/4x-8[8:1],,4b/5b,,
7x/5x-2[8:1],,5b/3b,,2x/4x-7[8:1],,4b/6b,6,
2qq4[4:6],,2,,2,,2,,
2,,2,,2,,2,7,
7pp5[4:5]/2,,7,,7,,7,,
7,,7,7,8w4[16:1],,,,
2-6[16:1],,2,,7-3[16:1],,7,,
1-5[16:1],,1,,8-4[16:1],,8,,
2-6[16:1]/1-5[16:1],,21,,7-3[16:1]/8-4[16:1],,78,,
56,56,43,34,{16}2,7,2,7,1,8,1,8,
{1}4bw8[8:5],
{16}6,5,6,,3,4,3,,8-4[16:1],1,8,,,,,,
3x`E1,B1,3x`E2,B2,3x`E3,B3,3x`E4,B4,3x`E5,B5,3x`E6,B6,3x`E7,B7,3x`E8,B8,
7x`E4,B3,7x`E3,B2,7x`E2,B1,7x`E1,B8,7x`E8,B7,7x`E7,B6,7x`E6,B5,7x`E5,6x`B4,
5x`E1,B8,5x`E8,B7,5x`E7,B6,5x`E6,B5,5x`E5,B4,5x`E4,B3,5x`E3,B2,5x`E2,B1,
1x`E6,B6,1x`E7,B7,1x`E8,B8,1x`E1,B1,1x`E2,B2,1x`E3,B3,1x`E4,B4`2x,3x`E5,B5,
8x`E3,B2,8x`E2,B1,8x`E1,B8,8x`E8,B7,8x`E7,B6,8x`E6,B5,8x`E5,B4,8x`E4,B3,
4x`E7,B7,E8,B8,4x`E1,B1,E2,B2,3x`E3,B3,2x`E4,B4,1x`E5,B5,E6,B6,
5xw1[16:1],,,,,,,,4xw8[16:1],,,,,,,,
Cf/E7/E3,,,,E2,,E8,,E4,,E6,,45,,45,,
6,7,8,1,5,4,3,2,4,5,6,7,3,2,1,8,
4,3,2,1,48,37,26,15,8,7,6,5,48,37,26,15,
8,1,2,3,7,6,5,4,2,3,4,5,1,8,7,6,
4,4,4h[8:1],,3,3,3h[8:1],,2,2,2h[8:1],,1,1,1h[8:1],,
8,7,6,5,4,53,62,71,8,1,2,3,1,8,7,6,
5,46,73,82,1,2,3,4,51,,84,,73,,62,,
5-1[8:1]/1,,,,53,,4-8[8:1],,,,46,,5s1[8:1],,,,
53,,4>5[8:3],,,,4b/5b,,,,E5,,Cf,,,,
7x/2h[4:6],,,,7,,,,7,,,,5,,6,,
7,,,,5,,,,6-1[16:1],,,,6x/2x-5[16:1],,,,
7h[4:5]/2x,,,,2,,,,2,,,,4,,3,,
2,,,,1,,,,1x/8x,,6x,5x,7x,,1x/8x,,
7x/2h[4:6],,,,7,,,,7,,,,5,,6,,
7,,,,8,,,,1-5[8:1],,,,1x/8x-4[16:1],,,,
8x/7h[4:5],,,,2,,,,2,,,,2,,,,
3x,,,,3,,,,4xz8[8:1]/5xs1[8:1],,,,,,,,
75,,,42,,,7,6,85,,74,,63,,52,,
4bs8[8:4]/1bz5[8:4],,,,,,,,,,,,,,,,
24,,,57,,,2,3,14,,25,,36,,47,,
5bz1[8:4]/8bs4[8:4],,,,,,,,,,,,,,,,
5x/4x^1[8:5],,,,5,,,,5,,,,5,,,,
4/3^8[8:5],,,,4,,,,4,,,,4,,4,,
3/2^7[8:5],,,,3,,,,3,,,,3,,,,
2/1^6[8:5],,,,2,,2,,2-6[8:1],,,,,,,,
4x-1[16:25]/5x,,5,,6,,6,,7,,7,,8,,8,,
6,,6,,7,,7,,8-5[16:1],,8,,,,,,
5x-8[8:5]/4x,,4,,3,,3,,2,,2,,1,,1,,
8,8,8,8,8,8,8,8,8w4[16:1],8,8,8,8x,,,,
E6/B6/B7/E8/B8/B1/B2/E2/Cf,,,,{12}4,5,4,6,5,6,3,4,3,
7,5,6,2,4,3,8,6,7,1,3,2,
{16}8,1,7,2,8,1,7,2,6,3,5,4,6,3,5,4,
1>8[4:1],,,,,,,,{32}1,2,3,4,5,6,7,8,{16},,,,
{64}1b-5[44.4#80:1]/8b-4[37#96:1],7b-3[55.5#64:1]/2b-6[31.71#112:1],6b-2[31.71#112:1]/3b-7[55.5#64:1],5b-1[44.4#80:1]/4b-8[37#96:1],{16},,,,,,,,,,,Cf,,,,
B3/B7,,,,B1/B5,,,,B4/B8,,,,B2/B6,,,,
3b/7b,,,,37,84,15,,51,,5,,57,,58,,
4/1-6[16:1],,4,,3/1-4[16:1],,3,,2/1-5[8:1],,2,,14,,4,,
4/8-3[16:1],,4,,8/4-7[16:1],,4,,48,,8,,84,,15,,
2/6^1[16:1],,6,,6/2^5[16:1],,2,,2/6<2[16:1],7,8,,62,3,4,,
48,,48,,62,,62,,73,,73,,15,,15,,
2-5[16:1]/6-1[16:1],,,,26,,,,4b/8b,,3b/7b,,2b/6b,,1b/5b,,
8-3[16:1]/4,,4,,4/8-5[16:1],,4,,4/8-3[16:1],,4-7[16:1],,4/8-5[16:1],,4,,
8^3[16:1],,4,,4q1[8:3]/8q5[8:3],,4,,,,,,,,,,
1-6[16:1]/5,,5,,5/1-4[16:1],,5,,5/1-6[16:1],,5-2[16:1],,5/1-4[16:1],,5,,
1^6[16:1],,5,,5p1[16:1]/1p5[16:1],,5,,1b^4[16:1]/5b^8[16:1],,,,1b/5b,,,,
8-4[16:1]/4,,3,,8-6[16:1]/4,,3,,2/8-4[16:1],,1-5[16:1],,2/8^5[16:1],,1,,
8^3[16:1],,8,,87,,7,,87,16,25,,12,38,47,,
4-2[16:1]/5-1[16:1],,,,4b/5b,,,,4-8[16:1]/5-7[16:1],,,,4b/5b,,,,
4-1[16:1]/5-8[16:1],,,,4b>4[8:3]/5b<5[8:3],,,,,,,,,,,,
Cf,,,,,,,,,,,,,,,,
E6,,,,E2,,,,E8,,,,E4,,,{32},,
E7,C,E3,{16},,,,,,,,,,,,,,,
B5/B4,,,,,,,,,,,,E7,,E3,,
B1/B8,,,,,,,,C,,,,,,,,
,E8/E4,,,,,,,,E6/E2,,,,,,,
,{32},E1/E7/E5/E3/C,{16},,,,,,,,,,,,,,,
,,,,,,,,,,,
4b-2[8:11]*-1[8:11]*-8[8:11]*-7[8:11]*w8[8:11]/5b-7[8:11]*-8[8:11]*-1[8:11]*-2[8:11]*w1[8:11],,,,,,,,,,,,,,,,
,,,,,,,,,,,,,,,
1x/8x,1x/8x,1x/8x,,C,,7x/3x,7x/3x,7x/3x,7x/3x,7x/3x,,C,,2x/6x,2x/6x,
2x/6x,2x/6x,2x/6x,,C,,4x/5x,,6/8b,,1b/3,,7/5b,,2/4b,,
1x/8x,1x/8x,1x/8x,,C,,2x/4x,2x/4x,2x/4x,2x/4x,2x/4x,,C,,5x/7x,5x/7x,
5x/7x,5x/7x,5x/7x,,C,,3x/6x,,{12}2b/7,2/7b,2b/7b,8b/1,8/1b,8b/1,
{16}B7/B5/Cf/B4/B2,,,,,,5h[32:1]/4h[32:1],,,,,,,,,
,,,,,,,,,,,,,,,,
,,,,,,,,,,,,,,,,
E
