&title=Gemini Star
&artist=uma vs. モリモリあつし
&first=-0.05
&des=☆Sakusan☆
&lv_5=14
&inote_5=(170){4},,,,
3b/7qq8[4:5],3,3,3,3,3,3,3,3/4h[4:1],3,3/2h[4:1],3,3/8h[4:1],3,3/6h[4:1],3,
3b/5<2[4:5],3,3,3,3,3,3,3,3/5-8[8:1],3,3/1-6[8:1],3,3/7-4[8:1],3,3/5-1[8:1],3,
{16}2b/8b,,,7,4,,4,,35,,,2,5,,5,,
16,,,8,2,,2,,37,,,4,6,,65,,
45,,,3,7,,7,,61,,,5,3,,3,,
24,,,8,1,,1,,27,,,4,5,,54,,
3b,4,3,4,3,4,3,4,3,4,3,4,3,4,3,4,
2b,4,3,4,3,4,3,4,3,4,3,4,3,4,3,4,
2b,6,4,5,4,5,4,5,3b,7,5,6,5,6,5,6,
{4}5bp4[2:1],,,C1f,
8w4[8:1],8b,2-5[8:1],2/8-4[8:1],
8/1-5[8:1],1/6-2[8:1],36,8b,
7-5[8:1]/1-5[8:1],1-3[8:1]/7-3[8:1],1/7<4[8:1],17,
{8}2h[4:1],4b,1h[4:1],4b,2h[8:1],4b,8b,,
{4}2-6[8:1]/6,2/7-3[8:1],7/1-5[8:1],1/6-8[8:1],
6/3-7[8:1],3/6-4[8:1],62,1b,
8-4[8:1],8-6[8:1]*-2[8:1],8-3[8:1]*-4[8:1],8,
{8}7h[4:1],5b,8h[4:1],5b,7h[8:1],5b,1b,,
{4}4w8[8:1],4b,2-5[8:1],2/6-1[8:1],
6/4-8[8:1],4/7-3[8:1],27,5b,
2-4[8:1]/8-4[8:1],8-6[8:1]/2-6[8:1],8/2>5[8:1],82,
{8}6h[4:1],8b,5h[4:1],8b,6h[8:1],8b,4b,,
{16}6,5,6,5,6,5,6,5,6,5,6,5,6,5,6,5,
7x,5,6,5,6,5,6,5,6,5,6,5,6b,5,6,5,
7x,3,5b,4,5,4,5b,4,6x,2,4b,3,4,3,4b,3,
{1}4x<8[2:1]*>8[2:1],
{16}2/6h[4:1],,,,2,,7,6,5h[4:1]/2,,,,2,,6,7,
82,,1,1,7,8,7,8,7,,2,1,2,1,2,,
28,,7,1,,6,5,6,5,,3,4,,4,5,,
6/5qq1[2:1],,,,6,,,,6,,,,6,,6,7,
8h[4:1]/2,,,,2,,7,6,5h[8:1]/2,,,,2,,6,7,
2/8h[8:1],,,,1,1,8,,7h[16:3],,,6h[8:1],,5x,5x,,
4x>1[8:1],,,6,,,7,,8x<5[8:1],,,2,,,3,,
4-1[8:1]*-2[8:1],,,,4-6[8:1]*-7[8:1],,,,4,,,,1,,1,2,
7/3h[4:1],,,,7,,2,3,4h[4:1]/7,,,,7,,3,2,
17,,8,8,2,1,2,1,2,,7,8,7,8,7,,
71,,2,8,,3,4,3,4,,6,5,,5,4,,
3/4pp8[2:1],,,,3,,,,3,,,,3,,3,2,
1h[4:1]/7,,,,7,,2,3,4h[8:1]/7,,,,7,,3,2,
7/1h[8:1],,,,8,8,1,,2h[16:3],,,3h[8:1],,4x,4x,,
5bv8[8:1],,,3,,,2,,1bv4[8:1],,,7,,,6,,
5b-8[8:1],,,,5/2-6[8:1],,,,2/7-3[8:1],,,,7/1p5[8:1]*q5[8:1],,,,
{1}1b>8[4:13],,,{16},,,,,,,,,,,,,,{36},{16}B3,B4,
E5,,,,C1,,,,E6,,,E7,,,E8,,
E4,,,E3,,,E2,,B6/C1/B3,,,,,,B6,B5,
E5,,,E3,,,E4,,E1,,,E8,,,E7,,
{8}1b-5[8:1],1,,7b,7-3[8:1],,C1f,,
5-8[1:1]/4,,4,,4,,4,,4,,4,,47,,46,,
4-1[1:1]/5,,5,,5,,5,,5,,5,,52,,53,,
47,6,25,3,47,6,25,3,48,6,15,3,48,6,15,3,
{16}7,5,7,5,6,4,6,4,5,3,5,3,4,2,4,2,
1b,,3x/7x,3x/7x,3x-8[8:1]/7x-4[8:1],,26,,37,,,,2b/6b,,,,
1<6[8:1],,2,,13,,4,4,5x-8[8:1],,3,,2,,1-5[8:1],,
7,,1-4[8:1],,6,,1,,8,,7,,62,,5,,
4<7[8:1]/8,,3,,2,,1,1,8x-3[8:1],,7,,68,,5,,
4-8[8:1],,2-8[8:1],,4,,2,,7v4[8:1]*-2[8:1],,,,7,,,,
5x-1[8:1],,6,,57,,8,8,2x-5[8:1],,1,,8,,7-3[8:1],,
3,,7-5[8:1],,2,,7,,1,,2,,37,,4,,
8>3[8:1]/5,,7,,6,,5,5,4x-7[8:1],,3,,24,,1,,
8-4[8:1],,6-4[8:1],,8,,6,,1>4[8:1]*<6[8:1],,,,1b,,,,
1-5[8:1],,,,51,,6,,1-3[8:1]/7-4[8:1],,8,,17,,,,
1-5[8:1],,8,,17,,6,,7-3[8:1]/1-3[8:1],,8,,17,,,,
1-5[8:1],,,,16,,7,,8-3[8:1],,7,,68,,,,
1-5[8:1],,5,,61,,7,,8w4[8:1],,17,,8b,,,,
8-4[8:1],,,,48,,3,,8-6[8:1]/2-5[8:1],,1,,82,,,,
8-4[8:1],,1,,82,,3,,2-6[8:1]/8-6[8:1],,1,,82,,,,
1,8,1,8,2,7,2,7,3,6,3,6,4,5,4,5,
{32}4,3,2,1,8,7,6,5,4,3,2,1,8,7,6,5,4w8b[8:1],,,,,,,,C1f,,,,,,,,
{16}2x,6,2,6,2x,6,2,6,2x,6,2,6,2x,6,2x,6,
1,8,1,8,1x,8,1,8,1x,8,1,8,1x,8,1x,8,
5,6,5x,6,5,6,5x,6,5,6,5x,6,5x,6,5x,6,
4,7,4,7,2,6,2,6,2x,8,2,7x,2,6,2x,5,
3,4,3x,4,3x,4,3,4,3x,4,3,4,3x,4,3x,4,
1,7,1x,7,1x,7,1,7,1x,7,1,7,1x,7,1x,7,
2,1,2x,1,3,8,3x,8,4,7,4x,7,5x,6,5x,6,
4,7,3,6,2,5,1,4,2-6[8:1],5,3,6,2b,,,,
7,8,7,8,7x,8,7,8,7x,8,7,8,7x,8,7x,8,
6,3,6,3,6x,3,6,3,6x,3,6,3,6x,3,6x,3,
4,2,4x,2,4,2,4x,2,1,2,1x,2,1x,2,1x,2,
8,3,8,3,8,3,8,3,5x,4,6,3x,7,2,8x,1,
7,8,6,1,7,8,6,1,7-4b[8:1],,,,7b,,,,
2,1,3,8,2,1,3,8,2-5[8:1]*v5[8:1],,,,2b,,,,
7b,8,7,8,5b,4,5,4,1b,2,1,2,5b,4,5,4,
E6,E7,E8,E1,E2,E3,E4,E5,{32}A5,A6,A7,A8,A1,A2,A3,A4,A5/C1f,,,,,,,,
(85){1}4bV28b[2:7]/8bV64[2:7],,,,1x-3[2:5]/5x-7b[2:5],,,C1fh[1:1],1b,
