&title=黄昏の碑文
&artist=Blacklolita
&first=0
&des=Youters
&lv_5=13
&inote_5=(149.98){1},
{48}8b-4[4:6]/1b,27,36,4/5<3[16:23],,,{8},,,{2},,,
{8}8h[8:3],,,4,,,2<4[4:3]/6>8[4:3],,{1},
{8}6,4,5,3,7,1,7,5,8,2,4,2,7,2,5,7,
3,5,4,6,2,8,2,4,1h[8:1],2h[8:1],4h[8:1],5h[8:1],1,82,73,64,
{8}5b<2[4:1],,,3,4-8[8:1],,4,,7V51[4:1],,2-6[8:1],,2,,8<3[4:1],,
{16}83,,,2,,,1,,8h[4:1]/4h[8:1],,,,3-6[8:1],,6-3[8:1],,
{8}3-8[8:1],8>6[4:1],,,7h[8:1],,{24}6,5,4,3,2,1,
{8}8h[8:2]/5b,,7,6h[8:2]/1b,,,{16}2,4,2,,
{8}5h[8:2]/3b,,2,1h[8:2]/4b,,,{16}7,5,7,6,
{1}8bz4[4:6]*pp4[4:6],,
{4}5b>5[4:6],2h[8:1],1h[8:1],8h[8:1],{8}4,4,3,3,2,2,1-5[4:3],1,1h[4:3],,,,,,,
{16}2,3,4,6,7,8,2,3,4,1,{12}8,7,6,4-8[4:7],,,
{1}6h[4:7],{4},,,{8},7,
{1}8V64[4:3]/1V35[4:3],5?s1[14400#1:72]/4?z8[14400#1:72],
{16}
2h[16:3],,,,4h[8:1],,3h[8:1],,4h[4:1],,,,3-8[8:1],,,,
7h[16:3],,,,5h[8:1],,6h[8:1],,5h[4:1],,,,6-1[8:1],,,,
2h[16:3]/6,,,,3/4h[8:1],,2h[8:1],,4h[4:1],,,,3-8[8:1],,,,
7h[16:3]/3,,,,6/5h[8:1],,7h[8:1],,4h[4:1],,,,6^1[8:1],,,,
2h[16:3],,,4,4h[8:1],,3h[8:1],,5h[16:3],,,2,2h[8:1],,4h[8:1],,
1h[16:3],,,7,7h[8:1],,8h[8:1],,6h[16:3],,,4,4h[8:1],,5h[8:1],,
{16}2,4,3,4,3,4,3,4,{32}25,3,4,5,6,7,8,1,2,3,4,5,6,7,8,1,
{8}2/6-4[8:1],4-8[8:1],6/3>3[8:3],,3,,,,
{4}5h[8:3]/8b-3[8:1],8,{24}3,2,1,8,7,6,{4}5h[8:3]/1-6[8:1],
1b,{24}6,7,8,5,6,7,1^4[12:1],2^5[12:1],3^6[12:1],8,7,6,{4}1-5[8:1],
1b,{24}4,3,2,1,8,7,6<3[16:3]/4,3,2,1,8,7,{4}63,
{12}1h[32:1],4h[48:1],2h[24:1],6h[32:1],5h[48:1],8h[24:1],7h[32:1]/1,7,7,17,1`7,17,
{4}8h[8:3]/1b-6[8:1],1,{24}6,7,8,1,2,3,{4}8h[8:1]/4,{24}3b/8,2,1,8,7,6,8>7[16:4]/5,7h/4,6h/3,5h/2,4h/1,3h/8,{2}7<2[16:3],
{16}8h[16:3],,,,2,2,2,2,1/3h[16:3],,,,7,7,7,7,68,,17,,{8}2/8-4[8:1],1-5[8:1],8^5[8:1],1^4[8:1],8,1,
{1}8bw4[8:5],
{8}1h[8:1],2h[8:1],3h[8:1],4h[8:1],5h[8:1],6h[8:1],7h[8:1],8h[8:9],2h[2:1],,,,,,4>5[4:3],,,,,,,,7h[4:1],,
{4}3,24,35,46,{8}75,7,64,6,35,3,24,2,
{16}1,8,1,8,2,7,2,7,3,6,3,6,4,5,4,5,{32}4,3,2,1,8,7,6,5,4,3,2,1,8,7,6,5,4,3,2,1,8,7,6,5,
{4}4h[4:1]/8-4[16:1],8b>7[4:9]*<1[4:9],,,,
{1},{4},,,{8},{16}3,4,5,6,7,8,5,6,7,8,{12}2,3,4,5h[4:1],,,
{4}7V58[4:3],{8}4,4,3,3,2,1,
{4}2V48[4:3],{8}5,5,6,6,7,7,
1V73[4:3],,2,2,3,3,4,5,
5V38[4:3],,8,7,6,7,6,5,
{16}6V82[74.49#8:1],,,2,,,2,,3V51[74.49#8:1],,,3,,,8,,8V64[74.49#8:1],,,7,,3h[8:1],,,3,2,1,8,7,6,5,4,
{16}3V17[74.49#8:1],,,7,,,7,,6V48[74.49#8:1],,,6,,,1,,1V35[74.49#8:1],,,2,,5h[16:6],,,,,,,6,7,8,1,
{16}3V17[74.49#8:1],,,7,,,7,,3/6V48[74.49#8:1],,,6,,,1,,6/1V35[74.49#8:1],,,2,,6h[8:1],,,6,7,8,1,2,3,4,5,
{16}6V82[74.49#8:1],,,2,,,2,,6/3V51[74.49#8:1],,,3,,,8,,3/8V64[74.49#8:1],,,7,,3,,,8/4q8[4:1],,,,,,,,
{1}2bw6[8:5],
{8}8h[8:1],7h[8:1],6h[8:1],5h[8:1],4h[8:1],3h[8:1],2h[8:1],1h[8:9],7h[2:1],,,,,,5<4[4:3],,,,,,,,{16}1-4[8:1]*-6[8:1],5,,5,{4}1bq4[4:5]*p6[4:5],,,,,,{8},
{24},3,5,4h[12:1],,7h[12:1],,5h,,
{32}8b/4b-8[4:3],3h/7,2h/6,1h/5h,{8}4h[8:7],{4},,,
{1}8?z4[14400#1:72]*q5[14400#1:72],
{32}3b,4,5,,8h[16:1],,2b,3,4,,7h[16:1],,1b,2,3,,{24}6,5,4,3,2,1,
{16}4h/8,3h,2h/6,1h,{24}6,5,4,7,6,5,8,7,6,1,8,7,{16}5-1[8:1]*-8[8:1],5,4,4,,,,,
{32}3h[16:1]/6b,5,4,,,,2h[16:1]/7b,6,5,,,,1h[16:1]/8b,7,6,,{24}2,3,4,5,6,7,4h/8,5h,6h,7h,8h,,
{12}4h[32:1],1h[48:1],3h[24:1],7h[32:1],8h[48:1],5h[24:1],
{96}6/8b,,,,,,,,6,,,,,,,,6,,4b,,,,,,7,,,,,,2b,,7,,,,,,,,7,,,,,,,,
{32}1b,2,3,,7h[16:1],,1b,2,3,,6h[16:1],,1b,2,3,,
{24}1^4[24:2],2^5[24:2],3^6[24:2],8,7,6,1V75[8:1],,,,,,
{16}1/3h[8:1],,,4h[8:1],,,2h[8:1],,8,,6,75,,3,24,,
7h[16:3],,,,2,1,2,1,3/8h[16:3],,,3,6,5,6,5,
{8}47,1,7-3[8:1],8-4[8:1],7^4[8:1],8^3[8:1],7qq4[8:3],8,
{16}7,,3h[16:1],,,2h[16:1],,,{24}63,4,5,6,7,{48}8,{16}5,5,5/1h,5`1h,{48},
{16}2-5[8:1],,6,,2/7,,8-4[8:1],8,4V61[4:1],,5,,3h,,2h,,
{32}2b,3,4,5,,,1b/2,8,7,6,,,1b,,,,8b-4[8:1],17,26,35,4,,,,{16}2h[8:1],,,,
{12}1,15,1`5,3`7-4[16:1],37,3`7,{6}2b-6[16:1]/7,8b-4[16:1]/2,8b,
{32}1b,2,3,,7h[16:1],,1b,2,3,,6h[16:1],,1b,2,3,,
{24}5^8[24:2]/2,6^1[24:2]/3,7^2[24:2]/4,8^3[24:2]/5,,,,,,,,,
{8}6v4[8:1],4V68[8:1],6,2,{16}3,,24,1,,75,8,,
{4}2bpp6[8:4]/6bpp2[4:2],,,,
{8}8-6[12:1],1-3[12:1],8-4[8:1],1-5[8:1],8b^5[8:1],1^4[8:1],8,1s5[8:1],
{1}8b<1[4:6],
