&title=この夏をうたって
&artist=テヅカ
&first=0.04
&des=好难写
&lv_5=13
&inote_5=(212){1},
{4}2b/7b,{8},{16}3,4,{8}3,2-6[8:1],5,{4}2/8^5[8:1],8-3[8:1],{8}48,5h[4:1],2,1h[4:1],6,
{4}7b-4[8:1],3-8[8:1],6-2[8:1],1^4[8:1],7h[4:1],{8}5>8[8:1],5,{4}6,{8}4b,5,
{4}3b/6,{16}4,5,4,,{8}3h[4:1],,{8}1,8-4[8:1]/2,,4,5h[8:1],,{16}6,5,6,,7,,8,,
{8}1b/2h[4:1],,{16}4,3,4,,5-8[8:1],,,,{8}2,3h[8:3],,,{4}1<5[4:1],5>1[4:1],1b,
{8}5b-2[8:1],,6,7-4[8:1],,8,{4}1V35[4:1],5V71[4:1],1V35[4:1],4,8,
{8}1b/7b,,4h[64:4]/5h[64:3],,,3h[64:4]/4h[64:3],,2h[64:4]/5h[64:3],,1,1/4h[4:1],,{16}1,2,3h[8:1],,{8}6b,8,
1b/7b,,45,45,,3-1[8:1]/8-4[8:1],,3b/8b,,5,2-5[8:1]/6,,2/8-4[8:1],,18,,
2b/6b,,1h[64:4]/8h[64:3],,,8h[64:4]/7h[64:3],,,7h[64:4]/6h[64:3],,,6h[64:4]/5h[64:3],,,3,34,{8}
6h[8:1],5,3h[8:1],4,7h[8:1],8-4[8:1],1,2-6[8:1]/8b,,2b/8^3[8:1],,8b/5,,6,7-5[8:1]*-3[8:1],,
{8}7b,,24,,3,3,57,7,,3,3/4q8[4:1],,1,2,3h[4:1],,
1,,87,,56,4,35,4,2,2,5pp5[4:1],5,5q2[4:1]*>2[4:1],,,,
,,8^5[8:1],,1^4[8:1],,7,8-4[8:1],,8,5qq5[4:1]*pp5[4:1],,,,,2,1s5[4:1],,1,8,,6,7h[8:1],5-1[8:5],,,7,7,8-4[8:1],8,,,
{8}21,,43,,6/4,5^2[8:1],,15,,81,,8/7-4[8:1],,7,5-8[8:1],,5/3h[8:3],,,2h[8:3],,,1h[2:1],,,,8<4[4:1],,4>8[4:1],,8,,
4-8[8:1],,7,7>3[4:1],,6,5,4h[8:3],,5,5,,12,,47,,6h[2:1]/5h[8:1],,5,,5,6-1[8:1],4,
{4}6/2-6[8:1],2/5-8[8:1],53,{8}1,1-3[8:1],,
{8}1b/5-7[8:1],,4,,5-7[8:1]/3,3,4,,{8}8/4-2[8:1],,5,,4-2[8:1]/6,6,5,,
{8}4/1-3[8:1],,8,,1-3[8:1]/8,8,7,,5-8[2:1],,4,4,4,4,4,4,
7^2[4:1]/5,,2-7[4:1],3,,4,4h[8:2],,5^8[4:1],,8^3[4:1],,3<1[2:1],,6,,2h[4:1],,,,3,4-1[8:1],5,4bz8[8:5],,,,,,,,
7,7,1,6,8>4[4:1],,5,6,7h[4:1],,,5-2[8:1],7,5-8[8:1]/6,,5/1-5[8:1]*-3[8:1],,
1,,7,6V84[4:1],,4,3,2,1,8^3[8:1],,8,4,{24}5,6,7,
{4}8-5[8:1]/4b-1[8:1],8/4,
{8}87,87,18,18,12,12,38,38,47,47,56,{16}5,6,4,5,4,5,
{8}4-1[8:1],,6/4^7[8:1],5,42,3,4,1-5[8:1]*p6[8:6],,1bq4[8:4],,,,,,,
{8}2h[4:1]/5b,,,,{16}34,,2,1,2,,{4}3b/8b-5[8:1],8b/3b-8[8:1],{8}3b,{16}6,,7,7,{8}5w1[8:1],4,5b,,37,,
25,3<1[4:1],4,35,,4h[4:1],,2,6-1[8:1],,65,,
3/8h[4:1],,3,4,5>8[4:1],6,5/7,7-3[8:1],,,8-4[8:1],8,1-5[8:1],1,2-6[8:1],2,4h[4:1],,,4^7[8:1]/8^3[8:1],84,,,1b/5b,,
{16}2,5,2,,3,4,3,,4,5,4,,36,,
{8}7b-3[8:1],,74,5p1[8:1],,5/8^5[8:1]*^3[8:1],,8V25[4:1],,8,4h[4:1],,7h[4:1],,6,6,
{8}8v5[8:1],,3-8[8:1],,6,7-4[8:1],1,2h[8:3]/7b,,3-7[8:1],3,,{16}1-6[8:1],2,3,4,1,,4,,
{4}3-8[8:1]/7-4[8:1],37,1-5[8:1]/5h[8:1],{8}1,{4}6b-1[8:1],6b-3[8:1]/2b-7[8:1],2b/6b,{8}48,15,26,
{8}7b^2[8:1]/3,5,7,,4-1[8:1],1,4,8,7-4[8:1],1,7,8,5-7[8:1],1,5/8bw4[8:1],,8b,,
2-5[8:1],4,2,1,8-5[8:1],7,8^3[8:1],4,8,5,{16}6,7,8,,4^1[8:1],,1,,{8}4b/8b,{16},,6,8,6,,{8}7-4[8:1],8,1-5[8:1],2,{8}1^6[8:1]/5,,1-4[8:1]/3,,1-5[8:1]/8-5[8:1],,1b/8b>6[4:1],,8b/4b,,,3h[4:1],7>3[4:1],,3<7[4:1],,,,
2-5[8:1],1,6-1[8:1]/2,7,63,4,
{8}8b<5[8:1]/5b^2[8:1],,85,,1,1-5[8:1],7,1/8,,4,7-4[8:1],,{16}7/3,2,{8}1,1b,4,
2b/5b,3,74,6,5,3-7[8:1]/4-8[8:1],,3b/4b,,5,2-5[8:1]/6,7,2/8-5[8:1],1,8,,
{8}1b>4[8:1]/4^7[8:1],,14,,8,1-4[8:1],2,,7,,8,1-6[8:1],,{8}15,4,3,
{8}
6h[8:1],5,3h[8:1],4,7h[8:1],8-4[8:1],1,2-6[8:1]/8b,,2b/8^3[8:1],,85,,6,7-4[8:1],8,
{8}7b/1-5[8:1],,12,3-7[8:1],,3/4-8[8:1],,41,,{16}2,1,2,,8,,{8}7-4[8:1],1,7,8,
{8}5-1[8:1],,56,7-3[8:1],,7/8-4[8:1],,{16}85,6,7,,7,,5,,4,,{8}3-8[8:1]/6,5,3,4,
{8}1b/5b,2,37,6,25,3,74,8,12,3,45,6,78,15,4h[4:1],,
3,2,18,7,65,4^1[8:1]/8,65,4b,,
{16}7,8,6,1,6,1,5,2,5,2,{4}4^7[8:1]/3^8[8:1],4b/3b,{8},,{16}1,8,2h[4:1]/7-4[8:1],,,,7b,,,,{8}8,15,4,2b-7[8:1]/3b-6[8:1],
