&title=Blue Army
&artist=DJ Sharpnel
&first=0.013
&des=WYBXXJ
&lv_5=13+
&des_5=WYBXXJ
&inote_5=
(182.2){4}3h[1:1]/1qq5[4:3],,,,,,,,{1}1h[1:1]/5pp8[4:3],
,2h[1:1]/8qq4[4:3],
,2h[1:1]/4V61[2:1],
{4}8,7,6,{8}5h[16:1],5h[16:1],
{4}4b/6b,{8}2/5,{16}3,4,{8}3,2,1/8,{16}7,5,
{8}6,4,3/5,{16}2,1,{8}2,8,5/7,6,
3/5,2,8/1,{16}6,5,{8}7,8,7/1,{16}2,4,
{8}3,{16}6,5,{8}7,{16}2,1,{8}3,{16}7,8,{8}6,5,
4/2,1,8/7,{16}6,5,{8}6,7,8/1,{16}3,4,
{8}2,1,8/7,{16}6,5,{8}6,4,3/5,2,
1/8,7,6/5,{16}4,5,{8}4,3,2/8,{16}7,5,
{8}6,{16}3,4,{8}2,{16}7,8,{8}6x,6x,5/7,7/5,
{4}4b/8b-3[8:1],{8}8/7,{16}6,6,{8}5-1[8:1],4,3/5,2,
3-5[8:1],3,7-4[8:1],7,1-5[8:1],1,8,8,
{4}4-7[8:1],{8}4/3,{16}2,2,{8}1-5[8:1],8,7/1,6,
4-2[8:1],4,8-3[8:1],8,5-1[8:1],5,8,8,
7b/3b,7/3,6,6,5/3,5/3,2,2,
7/1,7/1,6/8,6/8,7/5,5/7,6/4,4/6,
{16}3b,4,3,4,2,5,1,6,8,7,8,7,1,8,2,1,
{1}3bpp8[2:1],
5b-8[4:3]/1b>4[4:3],
,1-6[4:3]/4-1[4:3],
,8>5[2:1],
2<4[2:1],
{2}3h[4:1]/5h[4:1],4h[4:1]/2h[4:1],
5h[4:1]/1>8[8:5],6h[4:1],
{1}6x-2-8-5-3-7[4:5],
,3h[1:1]/6-1-4[4:3],
{2},,8<1[2:1],
C,
3<2[2:1],C,
{4}7-5[8:1],8-4[8:1],1-5[8:1],2-4[8:1],
7-3[8:1],8-4[8:1],1-5[8:1],2-6[8:1],
8<4[4:1],4>8[4:1],8<4[4:1],4>8[4:1],
{1}8w4[2:1],
2h[4:7]/6h[4:7],
{16},,,,,,,,,,,,,,,,5b/2h[16:3],
,,4h[16:3],,,{8}3h[8:1],{16}7h[16:3],,,5h[16:3],,,{8}6h[8:1],
{16}1h[16:3],,,4h[16:3],,,{8}3h[8:1],{16}8h[16:3],,,5h[16:3],,,{8}6h[8:1],
{16}2h[16:3],,,3h[16:3],,,{8}4h[8:1],{16}8h[16:3],,,7h[16:3],,,{8}6h[8:1],
{16}1h[16:3],,,2h[16:3],,,{8}3h[8:1],{16}7h[16:3],,,6h[16:3],,,{8}5h[8:1],
{16}3h[2:1],,,1,,,{8}1,{16}7h[2:1],,,5,,,{8}5,
{16}2h[2:1],,,8,,,{8}8,{16}6h[2:1],,,4,,,{8}4,
{16}3>1[8:1],,,5,,,{8}5,{16}6<8[8:1],,,4,,,{8}4,
{16}2-5[8:1],,,8,,,{8}8,{16}7-4[8:1],,,1,,,{8}1,
{4}2bxh[1:4]/B4,B5,B6,B7,
B8,B1,B2,B3,
B4,B5,B6,B7,
B8,B1,B2,B3,
E5,E6,E7,E8,
E1,E2,E3,E4,
5h,6h,7h,8h,
1h,2h,3h,4h,
5-7[8:1],3-5[8:1],5,4/6,
{8}2,4,3,5,4,6,5,7,
{4}1-5[8:1],7-1[8:1],3-7[8:1],5,
{8}6,6,4,4,5,5,3,3,
{16}2,1,2,1,2,1,2,1,3,8,3,8,3,8,3,8,
4,7,4,7,4,7,4,7,5,6,5,6,5,6,5,6,
{32}4b,3,2,1,8,7,6,5,4,3,2,1,8,7,6,5,4,3,2,1,8,7,6,5,4,3,2,1,8,7,6,5,
{2}4/8,{4}1b-5[8:1],1b/8b,
{8}7b/4b,{16}6,5,{8}6,7,8-4[8:1],1,2/8,3,
2/5,{16}3,4,{8}3,2,1-5[8:1],8,7/1,6,
7/4,{16}6,5,{8}6,7,8-4[8:1],1,2/8,3,
5b<8[8:1],5,1>4[8:1],1,7-3[8:1],7,1,1,
2/5,{16}3,4,{8}2,1,7-3[8:1],8-4[8:1],7,8,
5,{16}6,5,{8}7,8,2-6[8:1],1-5[8:1],2,1,
{4}4q1[4:1],1>5[4:1],5<1[4:1],1,
{8}6b,{16}7,8,{8}7,2,3b/5b,3/5,4/6,4/6,
7b/8b,{16}6,5,{8}7-4[8:1],3-8[8:1],7,3,5,1,
2/4,{16}3,4,{8}2-5[8:1],6-1[8:1],2,6,4,8,
7/5,{16}6,5,{8}6-1[8:1],2-5[8:1],6,2,7-3[8:1],8,
1-5[8:1],8,7<4[8:1],8,1>4[8:1],8,7,6,
7/5,{16}6,5,{8}7-5[8:1],5-1[8:1],7,4,3,2,
4/2,{16}3,4,{8}3-1[8:1],1-5[8:1],3,8,7,6,
7/4,{16}6,5,{8}7,{16}2,1,{8}3,{16}7,8,{8}6,{16}3,4,
{8}2,{16}7,5,6,5,{8}6,{16}8x/7x,6/1,{8}5/2,{16}1x/2x,3/8,{8}4/7,
1bv6[8:1],{16}8,8,{8}1,7,5-1[8:1],4,5/3,2,
8v3[8:1],{16}1,1,{8}8,2,4<7[8:1],1,2,3,
8/2,{16}3,4,{8}3,{16}6,5,{8}7-4[8:1],3-8[8:1],7,3,
6-4[8:1],7,6/4,3,2-5[8:1],1,2/5,6,
8bv3[8:1],{16}1,1,{8}8,2,4-8[8:1],5,4/6,7,
1v6[8:1],{16}8,8,{8}1,7,5>2[8:1],8,7,6,
5/1,{16}2,4,{8}3,{16}6,5,{8}7,{16}2,1,{8}3-8[8:1],4,
3/5-1[8:1],6,5/4-8[8:1],3,4/5xh,6xh,7xh,8xh,
1b-5[8:1],{16}8,8,{8}1,7,4-8[8:1],8-3[8:1],7,6,
5-1[8:1],{16}4,4,{8}5,3,8-4[8:1],4-7[8:1],3,2,
1>4[8:1],{16}8,8,{8}1,7,5-1[8:1],4,5/3,2,
8<5[8:1],{16}1,1,{8}8,2,4-8[8:1],3,4/2,1,
7b<5[8:1],{16}1,1,{8}7-3[8:1],8-4[8:1],7,8,5,6/3,
7/2b>4[8:1],{16}8,8,{8}2-6[8:1],1-5[8:1],2,1,2,3,
{4}4/7b-5[8:1],7/8-4[8:1],8/1-5[8:1],1/2-4[8:1],
2/7-3[8:1],7/8-4[8:1],8/1-5[8:1],1/2-6[8:1],
2/7-5[8:1],7/4-8[8:1],4/1-5[8:1],1/4-2[8:1],
4/8w4[8:1],8b,1w5[8:1],1b,
(184){1}3bqq8[4:5]/7bqq4[4:5],
,B2/B3/E3/B7/E7/B6/Ch[1:2],
E
