&title=驟雨の狭間
&artist=silentroom
&first=-0.431
&des=m
&lv_5=1
&des_5=m
&inote_5=
(174){4},,,,4h[16:3],
4,,
||这是一个标记~
,
5h[16:3],5,,,4h[16:3],
4,,,5h[16:3],
5,,,4h[16:3],
4,,,5h[16:3],
5,,,4h[16:3],
4,,,5h[16:3],
5,,,4h[16:3],
4,,,5h[16:3],
5,,,4h[16:3],
4,,,5h[16:3],
5,,,4h[16:3],
4,,,5h[16:3],
5,,,4h[16:3],
4,,,5h[16:3],
5,,,1/8,
{16}8/1b,2,3,4,5,6,7,8,1/5,2,{8}3,
{4}5/4,{16}5b/4,6,7,8,1,2,3,4,5/1,6,{8}7,
{4}4/5,{16}5/4b,3,2,1,8,7,6,5,4/8,3,{8}2,
{4}8/1,{16}1/8b,7,6,5,4,3,2,1,8/4,7,{8}6,
{4}5/4,{16}4/5b,6,7,8,1,2,3,4,5/1,6,{8}7,
{4}5/4,{16}5/4b,3,2,1,8,7,6,5,4/8,3,{8}2,
{4}8/1,{16}8/1b,2,3,4,5,6,7,8,1/5,2,{8}3,
{4}5/4,{16}4/5b,6,7,8,1,2,3,4,{4}5/1,
{16}8/1-4[8:1],,,8,{8}1,8,{16}7/1-4[8:1],,,7,{8}1,7,
{16}6/1-4[8:1],,,6,{8}1,6,{16}5/1-4[8:1],,,5,{8}1,5,
{16}3/5-8[8:1],,,3,{8}5,3,{16}2/5-8[8:1],,,2,{8}5,2,
{16}1/5-8[8:1],,,1,{8}5,1,{16}8/5-8[8:1],,,8,{8}5,1,
2,3,2/5,3,5,5,7/4,6,
4,4,2/5,4,5,5,7/4,5,
{16}4,5,4,5,3,5,4,5,4,5,4,5,3>6[4:3],5,4,5,
{1}4,
{16}5,,,5-8[8:1],{8}6,{16}4,5,,,,1-4[8:1],{8}8,{16}2,1,
{8}2,{16}3,5-8[8:1],{8}4,{16}6,5,,,,8-4[8:1],7,,,8,
6,,,5-1[8:1],{8}4,{16}6,5,,,,8-4[8:1],{8}1,{16}7,8,
{8}6,{16}6,5-8[8:1],{8}7,{16}4,5,,,,1-4[8:1],{8}8,{16}2,1,
2,,,5-8[8:1],{8}4,{16}4,5,,,,1-6[8:1],{8}8,{16}2,1,
{8}2,{16}3,5-8[8:1],{8}4,{16}6,5,,,,8-5[8:1],{8}7,{16}1,8,
,,,4-1[8:1],{8}5,{16}3,4,,,,8-5[8:1],{8}2,{16}7,8,
6-3[8:1],,,4-1b[8:1],6,,,4,,,,8-5[8:1],{8}1,{16}7,8,
6,,,4-1[8:1],{8}5,{16}3,4,,,,2-5[8:1],{8}1,{16}1,2,
{8}8,{16}6,5-8[8:1],{8}7,{16}4,5,,,,1-4[8:1],{8}8,{16}2,1,
,,,5-8[8:1],{8}4,{16}6,5,,,,8-5[8:1],{8}7,{16}1,8,
{8}1,{16}2,4-1[8:1],{8}3,{16}3,4,,,,1-5[8:1],2,,,1,
3,,,4-8[8:1],{8}5,{16}3,4,,,,1-5[8:1],{8}8,{16}2,1,
{8}3,{16}3,4-1[8:1],{8}2,{16}5,4,,,,8-5[8:1],{8}1,{16}7,8,
7,,,4-1[8:1],{8}5,{16}5,4,,,,8-3[8:1],{8}1,{16}7,8,
{8}7,{16}6,4,{8}5,{16}5,4,7b,2b,,5b,3b,8b,1b,6b,
4b-1b[8:1],,,5-8[8:1],4/5,,,5,,,,1-4[8:1],{8}7b,{16}2,1,
{8}3,{16}3,5-8[8:1],{8}2b,{16}4,5,,,,1-5[8:1],{8}7b,{16}2,1,
3,,,4-8[8:1],{8}6b,{16}3,4,,,,1-5[8:1],{8}7b,{16}2,1,
{8}3,{16}3,4-1[8:1],{8}2b,{16}5,4,,,,8-5[8:1],{8}2b,{16}7,8,
7,,,4-1[8:1],{8}6b,{16}3,4,,,,8-3[8:1],{8}1b,{16}7,8,
{8}7,{16}5,4-1[8:1],{8}6b,{16}3,4,,,,1-4[8:1],{8}2b,{16}8,1,
,,,5-8[8:1],{8}4b,{16}6,5,,,,1-4[8:1],{8}7b,{16}2,1,
3,,,5-8[8:1],{8}3b,{16}6,5,,,,1-4[8:1],{8}8b,{16}2,1,
3,,,5-8[8:1],{8}3b,{16}6,5,,,,7-4[8:1],{8}1b,{16}8,7,
{8}1,{16}3,4-1[8:1],{8}2b,{16}5,4,,,,8-5[8:1],{8}2b,{16}7,8,
6,,,4-1[8:1],{8}5b,{16}3,4,,,,1-4[8:1],{8}8b,{16}2,1,
{8}2,{16}3,5-8[8:1],{8}4b,{16}6,5,,,,8-4[8:1],7b,,,8,
6,,,5-1[8:1],{8}4b,{16}6,5,,,,8-4[8:1],{8}1b,{16}7,8,
{8}6,{16}6,5-8[8:1],{8}7b,{16}4,5,,,,1-4[8:1],{8}8b,{16}2,1,
2,,,5-8[8:1],{8}3b,{16}4,5,,,,1-6[8:1],{8}8b,{16}2,1,
{8}2,{16}3,5-8[8:1],{8}4b,{16}6,5,,,,7,{4}8bw4b[8:1],
Cf/8b<1[8:21],8,,7,
,6,,5-8b[8:1],
5,4,,3,
,2,,1bw5b[8:1],
1<1<3b[2:7],1,,3,
,7,,1,
1<8<7<6>5[1:1],3,,5,
5>4>3[2:1],1,,1,
{16}5/1-5[8:1],,,5,{8}1,6,{16}2/6-2[8:1],,,2,{8}6,3,
{16}7/3-7[8:1],,,7,{8}3,8,{16}4/8-4[8:1],,,4,{8}8,5,
{16}1/5-1[8:1],,,1,{8}5,6,{16}2/6-2[8:1],,,2,{8}6,3,
{16}7/3-7[8:1],,,7,{8}3,8,{16}4/8-4[8:1],,,4,{8}8,5,
6/5,6/5,4,3,8/1,8/1,7,6,
3/4,4/3,2,1,7/6,7/6,5,4,
{16}3xh,5xh,1xh,4xh,2h,6h,3h,7h,4h,5h,3h,6h,2h,7h,4h,5h,
3x,4x,6x,5x,3x,4x,6x,5x,3x,4x,6x,5x,{4}3x,
{16}1/5,2,3,4,1b/5<1[4:1],2,3,4,5/1,2,3,4,5b,6,7,8,
1/5,6,7,8,1/6b,7,8,1,2/7,8,1,2,3/8b,1,2,3,
{8}4/8,{16}8/4,3,2b,1,8,7,6,5,8/4,7/3,6/2b,5,{8}4,
4/1,{16}1/4,2,3b,4,5,6,7,8,1/5,2/6,7/3b,8,{8}1,
{16}5/1>5[4:1],4,3,2,1/5b,6,7,8,1,2,3,4,5b,6,7,8,
1/4,3,2,1,8/4b,5,6/2,7/3,8/4,3,2,1,4b/8,5,6,7,
{8}8/4,{16}4/8,7,6b,5,4,3,2,1,4/8,3/7,2/6b,1,{8}8,
8/5,{16}5/8,6,7b,8,1,2,3,4,5/8,6/1,2/7b,3,4,5,
8/6h[8:1],1,2,3,4b,5,6,7,8/5,4,3,2,1b,8,7,6,
5/8,7,6,5,4/7b,6,5,4,3/6,5,4,3,2b,1,8,7,
6/3,4,5,6,7b,8,1/5,6/2,7/3,8,1,2,3b,4,5,6,
7/4,5,6,7,8/5b,6,7,8,1/6,7,8,1,2/6b,3/7,8/4,5/1,
{8}6/2,{16}1,8,7b,6,5,4,3/8,1,2/5,6/3,7/4b,6,5,4,
6/3,5,4,3,2/5b,6,7,8,3/1,4,5,6,7b,8,1/6,2/5,
3/4,2,1,8,7b,6,5v8[8:1],4,3/7,6,5/2,3,4b,5,6,7,
8/5,4,3,2,1/5b-1[8:1],4/8,3/7,2/6,1/5,2b,3b,4b,5b,6b,7b,8b,
4/1b,5,6,7,4b/8>4[4:1],5,6,7,4/8,5,6,7,8b,1,2,3,
4/1,2,3,4,5/2b,3,4,5,6/3,4,5,6,7/4b,5,6,7,
{8}8/4,{16}8/4,3,2b,1,8,7,6,5,8/4,7/3,6/2b,5,{8}4,
5/1,{16}5/1,6,7b,8,1,2,3,4,5/1,6/2,3/7b,4,{8}5,
{16}8/4<8[4:1],7,6,5,4/8b,1,2,3,4,5,6,7,8/5b,6,7,8,
4,3,2,1,8/4b,5,6/2,7/3,8/4,3,2,1,8/4b,5,6,7,
{8}8/4,{16}4/8,7,6b,5,4,3,2,1,4/8,3/7,2/6b,1,{8}8,
5/1,{16}1/5,2,3b,4,5,6,7,8,1/4,2/5,6/3b,7,8,1,
4/2,5,6,7,8b,1,2,3,4/8,1,2,3,4b,5,6,7,
8/1,2,3,4,5/2b,3,4,5,6/3,4,5,6,7b,8,1,2,
3/6,5,4,3,2b,1,8/4,3/7,2/6,1,8,7,6b,5,4,3,
2/5,4,3,2,1/4b,3,2,1,8/3,2,1,8,7/3b,6/2,1/5,4/8,
3/7,8,1,2,3/5b,6,7,8,1,8,7/4,6/3,2/5b,3,4,5,
6,7,8,1,2/5b,6,7,8,4/1,3,2,1,8/3b,2,1,8,
2/7,1,8,7,6b,5,4v7[8:1],3,6/2,5,{8}4,{16}8b,1,2,3,
4,5,6,7,8/4b-8[8:1],5/1,6/2,7/3,8/4,7b,6b,5b,4-8b[8:1],3b,2b,1b,
{2}8h[48:101]/4<5-1>3q7>1[1:15],A6h[4:5],
{8},,,,,,,,,7h[48:95],
,,,,,,,,,,,,,,,6h[8:31],
{4}E8h[8:5],,,E1,
{8}E2,B2,{16},C,,,C,,,C,
,,{8}C,{1},{4},,,{16},5x,
4x,3x,{4}2xh[48:89],{8},,,,,,,,,,,,,8h[48:95],
,,,,,,,,,,,,,,,7h[8:17],
,B3,B4,B5,{4}B6h[8:7],
{8},,,,,,,,,,,,,Ch[8:11],
,,,,,,,,,,{4}1b,
{16}1,2,3,4,5/1,2,3,4,5/1-6b[8:1],2,3,4,
{4}5/1,{16}8,7,6,5,4/8,7,6,5,4/8-3b[8:1],7,6,5,
{4}4/8,{16}4,3,2,1,8/4,3,2,1,8/4-7b[8:1],3,2,1,
{4}8/4,{16}6,7,8,1,2/6,7,8,1,2/6-3b[8:1],7,8,1,
{4}2/6,{16}8,7,6,5,4/8,7,6,5,4/8-3b[8:1],7,6,5,
{4}4/8,{16}2,1,8,7,6/2,1,8,7,6/2-5b[8:1],1,8,7,
{4}6/2,{16}7,6,5,4,3/7,6,5,4,3/7-2b[8:1],6,5,4,
{4}3/7,{16}8,7,6,5,4/8,7,6,5,4/8-3b[8:1],7,6,5,
{4}8/4,{8}4,6,{16}1/7-3[8:1],,,8,{8}7,2,
{16}1/2-6[8:1],,,1,{8}2,7,{16}7/5-1[8:1],,,4,{8}5,2,
{16}2/8-4[8:1],,,1,{8}8,3,{16}5/3-7[8:1],,,7,{8}3,6,
{16}5/6-2[8:1],,,2,{8}6,3,{16}3/1-5[8:1],,,8,{8}1,6,
4,4,6/5,4,4,4,7/5,4,
4,4,8/5,4,4,4,1/5,{16}4h,2,
4h,3,4h,5,4bh,6,3,7,2,8h,1,8h,7b,8h,6,8h,
5,4,8,7,4,3,7b,6,5,4,3,2,{32}5/1x-5b[8:1],4x/8,3x/7,2x/6,1x/5,8x,7x,6x,
{8}5x/1x>7[1:2],4,{4}3,,1,
,3,,5,
{8}7>5[1:2],8,{4}1,,3,
,1,,7,
{8}5<5[16:43],6,{4}7,,1,
,3,,5,
{8}5,6,{4}7,,7,
{8}6,{16}6,4,5,3,,,,,,,{4}2w6b[8:1],
2>2>2>2b[1:8],,,2,
,4,,6,
{8}8V24V68V24V68-2[1:6],1,{4}2,,4,
,2,,8,
{8}6<7-1-3-5-7-1>2[1:4]*<7-1-3-5-7-1>2[1:4],7,{4}8,,2,
,4,,6,
{8}4<5<6<7>8>1>2[1:2],5,{4}6,,8,
,2,,4,
E
