&title=Catchy !?
&artist=r-906
&first=-0.08000001
&des=Dolive
&lv_5=13
&lv_7=☆
&inote_5=(165)
{4},,,,
{8}6bh[4:1]/4h[4:1],,,6-4[8:1],,3,3,4-6[8:1],,2,2,6,6,4,5,,
6h[4:1]`4h[4:1],,,6^4[8:1]*^4[8:1],,3,3,4^6[8:1]*^6[8:1],,2,2,6,6,4,5,,
6xh[4:1]/4xh[4:1],,,7^4[32:5],,2,2,1pp1[32:9],,8,8,7,7,16,61,,
3h[4:1]`5h[4:1],,,2^7[8:1],,6,6,5qq3[16:3],,8,8,7,7,4,26,,
35,2b-4[8:1],,6h[4:1],,5,{16}7,4,{8}7,,1-5-7[32:7]/2,,8,8h[4:1],,,17,
,6-4[8:1],,2h[4:1],,1,{16}3,8,{8}3,,5>7[4:1]/6,,3,3h[4:1],,,73,,
1-4[8:1],6,6,,5s1[16:5],,3,,2,2,,38,,65,65,
,4-1[8:1],,34,,2,8qq5[8:3],4qq1b[4:1],,,,,,,3h/7h,,
1bpp1[4:1],,1<7[8:1],,6,6qq6[32:9],,4,,2q4[8:3],2q8[4:1],,,,,,
8h[4:1]/4h[4:1],,,2>4[8:1]/6<8[8:1],,,,1/5qq2[8:3]*qq2[8:3],,5/7h[4:1],,,8-5[8:1]*-5[8:1],,81,,
2V47[32:7],,5,,8,8V25[32:7],,7,,6,6>4V28[32:9],,3h[4:1],,,,
3/7,,1/5V31[32:7],5/1qq8[32:9],,,,2-6[8:1]*-6[8:1],,26,,48,,{16}7>2[4:1],,,,,,
{4}3bpp6[2:7],,,,,,,,,,,,,,,3,
5/4>6[2:6],4/5<4[2:6],,,,,,,,,,,,,,,
{16},,5,,5,,46,,3,4,3-5[32:3],,,6-2[8:1],,,7bV58[32:7],,,,7,,1,2,3,,2,,8-4[8:1],,4<7[8:1],,4,,,,,,
3/8b,,{24}2,3,4,{16}7-5[16:1],,,4-7[8:1],,,2b,,,,3,3,7,7,5,5,1,1,3,7,5,1,1,,28,,,,
3b/7b,,{24}2,3,4,{16}7^5[16:1],,,4q8[8:1],,,2b,,,,1,2,3,,48,,7,5,7,3,1,3,
8,2,6-2[8:1],,,,2b/6b,,,,8-2[16:1],,,3-1[16:1],,,5b-7[8:1]*-8[8:1],,,,5,,,,1,6,2,5,3,4q5[32:9],3,4,3,4,,,,,
2b>4[8:1],,6,6,2-8[8:1],,7,,5-7[8:1],,6,,2-5[8:1],,1,,8p4[8:1],,1,,3>1[8:1]/8-3[8:1],,,,3x,,,,
1-5[8:1],,,,18,,7,7,4^6[8:1],,,6-2[8:1],,,8bV64[16:3],,,,8,,2h[4:1],,,,4,,5x/1x,,7xq3[32:5]/3x-6[32:5],,,,
,,,,1x/5x,,7,7,2^4[16:1],,,5-2[8:1],,,7bV15[16:3],,,,7,,3h[4:1],,,,5^2-8[32:5],,6,,7-3[8:1]*-3[8:1],,,,
7b/1x,,,,2,,2,,1h[8:1]/3h[8:1],,,3h[8:1]/5h[8:1],,,5h[4:1]/7,,,,6,5,4,3,6,5,7,3,4,2,8,,{24}1b>5-7[32:46]/7b,6xqq5-1[32:46]/2,35,{8}4,{4},,,,,,,
72,2h[8:27]/7h[2:5],,,,,,,,,,,{8},8,,6,,4,15,,
8bh[4:1]/7h[4:1],,,8^3[32:5],,6,6,5^7[8:1],,4,4,8,1,7,26,,
4h[4:1]/3h[4:1],,,5^7[8:1],,2,2,1^4[32:5],,8,8,5,6,4,73,37,
,1-6[8:1],28,,5-1[8:1],47,,6h[4:1],,2v3[8:1],6v8[8:1],,,,4,4,
,5^7[8:1],,5,1^3[8:1],1,,8-4[8:1],,48,2v3[8:1],6v7[8:1],,,,15,,
2v7>1-5[8:3],,2,6,6,,7h[4:1],4,3,2h[4:1],6,6,{16}15,,,37,,,1h[4:1],,,,6,5,4,,5,,3,4,,25,,3,4,,6,5,,4,7,,16,,2,,38,,65,,
{8}4,3x-5[8:1],,3,6,7^5[8:1],,1,2,8-3[8:1],3V16[32:9],8V26[32:5],,,,,7,
7^1[8:1],,2,3,4-2[8:1],,46,,5-1[8:1],2>5[8:1],5<8[8:1],2,,1,,2,
2^8[8:1],,7,6,5-7[8:1],,53,,8-4b[8:1],4-8b[8:1],,2h[4:1],,,2,,
12,8,76,5,34,2,18,7,65,{16}5,6,4,5,3,4,2b,,,3b/8b,,,
{4}5b/6bqq3[2:7],,,,,,,,,,,,,,,6,
4/5<3[4:9],5/4>5[4:9],,,,,,,,,,4h[2:1],,{16}3,4,5,6,3,4,
3b,,,2b/1b,,,
{4}4b/7bpp2[2:7],,,,,,,,{24}6,5,4,{8}3,{4},,,,,,7,
8/1>7[1:2],1/8<1[1:2],,,,,,,,,,,,,{8}1>4[8:1]/7,2/8<5[8:1],,,
{16},,4,,4,,53,,6,5,6-4[32:3],,,3-7[8:1],,,2bV41[32:7],,,,2,,8,7,6,,7,,1>4[8:1],,5-1[8:1],,5,,,,,,
3/8b,,{24}7,6,5,{16}2^4[16:1],,,5-2[8:1],,,7b,,,,6,6,2,2,4,4,8,8,6,2,4,8,8,,35,,,,
6b/2b,,{24}7,6,5,{16}1-3[16:1],,,4V25[32:5],,,6b,,,,8,7,6,,51,,2,4,2,6,8,6,
1,7,3-7[8:1],,,,7b/3b,,,,1-7[16:1],,,6-1[16:1],,,4b^7[8:1]*-1[8:1],,,,4,,,,8,3,7,4,6,5qq6[32:9],6,5,6,5,,,,,
7b-4[8:1],,3,3,7-1[8:1],,2,,5-2[8:1],,3,,8-4[8:1],,1,,2p6[8:1],,1,,2>4[8:1]/5^8[8:1],,,,5x,,,,
1-5[8:1],,,,12,,3,3,6-4[8:1],,,3-6[8:1],,,1bV38[16:3],,,,1,,7h[4:1],,,,5,,4x/8x,,2xp6[32:5]/6x-3[32:5],,,,
,,,,8x/4x,,2,2,7-4[8:1],,,4-6[32:3],,,2bqq1[16:3],,,,2,,6h[4:1],,,,4^7-1[32:5],,3,,2-6[8:1]*-6[8:1],,,,
2b/8x,,,,7,,7,,8h[8:1]/6h[8:1],,,6h[8:1]/4h[8:1],,,4h[4:1]/2,,,,3,4,5,6,3,4,2,6,5,7,2,1,
{24}3b,4,5,6,7,8,1,2,3,4,5,6,7,8,1,2,3,4,5,6,7,8,1,2,3,4,5,6,7,8,1,2,3,4,5,6,7,8,1,2,3,4,5pp4[4:3],6,7,8,1,2,
{4}3qq4[2:1],,,,
{8}3^5[8:1],,6,6p3[8:3],,3,1b,1b,,2,,34,2,
{16}8-6[8:1],,,5,,,{8}3-5[8:1],,36,7-3[8:1],,47,2,8^3[8:1],,
5^3-1[16:3],,5,7,{16}6^3[8:1],,,8,,,{8}2h[4:1],,{16}1,2,1,3,4,3,5-2[8:1],,1b/7b,,{8}6h[4:1],,
2-6[8:1],,2,1,{16}8-6[8:1],,,5,,,{8}3^5[8:1],,37,8p3[16:3],,48,2,8v3[8:1],,
4V26[16:3],,4,8,{16}7^1[8:1],,,5,,,{8}3h[4:1],,{16}4,3,4,2,1,2,8b-3[8:1],,5b/6b,,{8}7h[4:1],,
4^7[8:1],,4,1,{16}2V41[16:3],,,8,,,{8}6h[4:1],,{16}2,,8,5,6,1,4,3,7,5,2,8,4,6,1-5b[8:1],5,5,,1b/6b,,8,,
{32}7b/3b,6,5,,,,2b/8b,3,4,5,,,3b/7b,,,
&inote_7=(165)
{4},,,,
{8}6bh[4:1]/4h[4:1],,,6-4[8:1],,3,3,4-6[8:1],,2,2,6,6,4,5,,
6h[4:1]`4h[4:1],,,6^4[8:1]*^4[8:1],,3,3,4^6[8:1]*^6[8:1],,2,2,6,6,4,5,,
6xh[4:1]/4xh[4:1],,,7^4[32:5],,2,2,1pp1[32:9],,8,8,7,7,16,61,,
3h[4:1]`5h[4:1],,,2$`2?<7[8:1]b/2?<7[100#10000:1]b,,8,8,5$`5?qq3[4:1]b/5?qq3[90#10000:1]b,,7,7,3,3,5,46,,
35,2b-4[8:1],,6h[4:1],,5,{16}7,4,{8}7,,1-5-7[32:7]/2,,8,8h[4:1],,,17,
,6-4[8:1],,2h[4:1],,1,{16}3,8,{8}3,,5>7[4:1]/6,,3,3h[4:1],,,73,,
1-4[8:1],6,6,,5s1[16:5],,3,,2,2,,38,,65,65,
,4-1[8:1],,34,,2,8qq5[8:3],4qq1b[4:1],,,,,,,3h/7h,,
1bpp1[4:1],,1<7[8:1],,6,6qq6[32:9],,4,,2q4[8:3],2q8[4:1],,,,,,
8h[4:1]/4h[4:1],,,2>4[8:1]/6<8[8:1],,,,1/5qq2[8:3]*qq2[8:3],,5/7h[4:1],,,8-5[8:1]*-5[8:1],,81,,
2V47[32:7],,5,,8,8V25[32:7],,7,,6,6>4V28[32:9],,3h[4:1],,,,
3/7,,1/5V31[32:7],5/1qq8[32:9],,,,2-6[8:1]*-6[8:1],,26,,48,,{16}7>2[4:1],,,,,,
{4}3bpp6[2:7],,,,,,,,,,,,,,,3,
5/4>6[2:6],4/5<4[2:6],,,,,,,,,,,,,,,
{16},,5,,5,,46,,3,4,3-5[32:3],,,6-2[8:1],,,7bV58[32:7],,,,7,,1,2,3,,2,,8-4[8:1],,4<7[8:1],,4,,,,,,
3/8b,,{24}2,3,4,{16}7-5[16:1],,,4-7[8:1],,,2b,,,,3,3,7,7,5,5,1,1,3,7,5,1,1$`1?-5[8:1]b/1?-5[100#10000:1]b,,5,,,,
3b/7b,,{24}2,3,4,{16}7^5[16:1],,,4q8[8:1],,,2b,,,,1,2,3,,48,,7,5,7,3,1,3,
8,2,6-2[8:1],,,,2b/6b,,,,8-2[16:1],,,3-1[16:1],,,5b-7[8:1]*-8[8:1],,,,5,,,,1,6,2,5,3,4q5[32:9],3,4,3,4,,,,,
2b>4[8:1],,6,6,2-8[8:1],,7,,5-7[8:1],,6,,2-5[8:1],,1,,8p4[8:1],,1,,3>1[8:1]/8-3[8:1],,,,3x,,,,
1-5[8:1],,,,18,,7,7,4^6[8:1],,,6-2[8:1],,,8bV64[16:3],,,,8,,2h[4:1],,,,4,,5x/1x,,7xq3[32:5]/3x-6[32:5],,,,
,,,,1x/5x,,7,7,2^4[16:1],,,5-2[8:1],,,7bV15[16:3],,,,7,,3h[4:1],,,,5^2-8[32:5],,6,,7-3[8:1]*-3[8:1],,,,
7b/1x,,,,2,,2,,1h[8:1]/3h[8:1],,,3h[8:1]/5h[8:1],,,5h[4:1]/7,,,,6,5,4,3,6,5,7,3,4,2,8,,{24}1b>5-7[32:46]/7b,6xqq5-1[32:46]/2,35,{8}4,{4},,,,,,,
72,2h[8:27]/7h[2:5],,,,,,,,,,,{8},8,,6,,4,15,,
8bh[4:1]/7h[4:1],,,8^3[32:5],,6,6,5^7[8:1],,4,4,8,1,7,26,,
4h[4:1]/3h[4:1],,,5^7[8:1],,2,2,1^4[32:5],,8,8,5,6,4,73,37,
,1-6[8:1],28,,5-1[8:1],47,,6h[4:1],,2v3[8:1],6v8[8:1],,,,4,4,
,5$`5?^7[8:1]b/5?^7[100#10000:1]b,,5,1$`1?^3[8:1]b/1?^3[100#10000:1]b,1,,8$`8?-4[8:1]b/8?-4[100#10000:1]b,,48,6$`6?-3[8:1]b/6?-3[100#10000:1]b/2$`2?-7[8:1]b/2?-7[100#10000:1]b,,,,37,73,,
2v7>1-5[8:3],,2,6,6,,7h[4:1],4,3,2h[4:1],6,6,{16}15,,,37,,,1h[4:1],,,,6,5,4,,5,,3,4,,25,,3,4,,6,5,,4,7,,16,,2,,38,,65,,
{8}4,3x-5[8:1],,3,6,7^5[8:1],,1,2,8-3[8:1],3V16[32:9],8V26[32:5],,,,,7,
7^1[8:1],,2,3,4-2[8:1],,46,,5-1[8:1],2>5[8:1],5<8[8:1],2,,1,,2,
2^8[8:1],,7,6,5-7[8:1],,53,,8-4b[8:1],4-8b[8:1],,2h[4:1],,,2,,
12,8,76,5,34,2,18,7,65,{16}5,6,4,5,3,4,2b,,,3b/8b,,,
{4}5b/6bqq3[2:7],,,,,,,,,,,,,,,6,
4/5<3[4:9],5/4>5[4:9],,,,,,,,,,4h[2:1],,{16}3,4,5,6,3,4,
3b,,,2b/1b,,,
{4}4b/7bpp2[2:7],,,,,,,,{24}6,5,4,{8}3,{4},,,,,,7,
8/1>7[1:2],1/8<1[1:2],,,,,,,,,,,,,{8}1>4[8:1]/7,2/8<5[8:1],,,
{16},,4,,4,,53,,6,5,6-4[32:3],,,3-7[8:1],,,2bV41[32:7],,,,2,,8,7,6,,7,,1>4[8:1],,5-1[8:1],,5,,,,,,
3/8b,,{24}7,6,5,{16}2^4[16:1],,,5-2[8:1],,,7b,,,,6,6,2,2,4,4,8,8,6,2,4,8,8$`8?w4[8:1]b/8?w4[100#10000:1]b,,4,,,,
6b/2b,,{24}7,6,5,{16}1-3[16:1],,,4V25[32:5],,,6b,,,,8,7,6,,51,,2,4,2,6,8,6,
1,7,3-7[8:1],,,,7b/3b,,,,1-7[16:1],,,6-1[16:1],,,4b^7[8:1]*-1[8:1],,,,4,,,,8,3,7,4,6,5qq6[32:9],6,5,6,5,,,,,
7b-4[8:1],,3,3,7-1[8:1],,2,,5-2[8:1],,3,,8-4[8:1],,1,,2p6[8:1],,1,,2>4[8:1]/5^8[8:1],,,,5x,,,,
1-5[8:1],,,,12,,3,3,6-4[8:1],,,3-6[8:1],,,1bV38[16:3],,,,1,,7h[4:1],,,,5,,4x/8x,,2xp6[32:5]/6x-3[32:5],,,,
,,,,8x/4x,,2,2,7-4[8:1],,,4-6[32:3],,,2bqq1[16:3],,,,2,,6h[4:1],,,,4^7-1[32:5],,3,,2-6[8:1]*-6[8:1],,,,
2b/8x,,,,7,,7,,8h[8:1]/6h[8:1],,,6h[8:1]/4h[8:1],,,4h[4:1]/2,,,,3,4,5,6,3,4,2,6,5,7,2,1,
{24}3b,4,5,6,7,8,1,2,3,4,5,6,7,8,1,2,3,4,5,6,7,8,1,2,3,4,5,6,7,8,1,2,3,4,5,6,7,8,1,2,3,4,5pp4[4:3],6,7,8,1,2,
{4}3qq4[2:1],,,,
{8}3^5[8:1],,6,6p3[8:3],,3,1b,1b,,2,,34,2,
{16}8-6[8:1],,,5,,,{8}3-5[8:1],,36,7-3[8:1],,47,2,8^3[8:1],,
5^3-1[16:3],,5,7,{16}6^3[8:1],,,8,,,{8}2h[4:1],,{16}1,2,1,3,4,3,5-2[8:1],,1b/7b,,{8}6h[4:1],,
2-6[8:1],,2,1,{16}8-6[8:1],,,5,,,{8}3^5[8:1],,37,8p3[16:3],,48,2,8v3[8:1],,
4V26[16:3],,4,8,{16}7^1[8:1],,,5,,,{8}3h[4:1],,{16}4,3,4,2,1,2,8b-3[8:1],,5b/6b,,{8}7h[4:1],,
4^7[8:1],,4,1,{16}2V41[16:3],,,8,,,{8}6h[4:1],,{16}2,,8,5,6,1,4,3,7,5,2,8,4,6,1-5b[8:1],5,5,,1b/6b,,8,,
{32}7b/3b,6,5,,,,2b/8b,3,4,5,,,3b/7b,,,
